.
Авторизация | Регистрация
Хочешь лучшие торренты? Добавь свой email!
Добавить
  • support: webmaster@servmix.org
» » Камасутра в трёхмерном изображении / Kama Sutra in 3D (1997) DVD9 | P | 3D-Video скачать торрент бесплатно


    Камасутра в трёхмерном изображении / Kama Sutra in 3D (1997) DVD9 | P | 3D-Video скачать торрент бесплатно

    Опубликовал: Админ | Дата: 27-02-2015, 11:09 | .torrent скачали: 1259

    Камасутра в трёхмерном изображении / Kama Sutra in 3D (1997) DVD9 | P | 3D-Video

    Информация о фильме
    Название: Камасутра в трёхмерном изображении
    Оригинальное название: Kama Sutra in 3D
    Год выхода: 1997
    Жанр: эротика
    Режиссер: Шелдон Гринберг

    О фильме:
    Всё, что Вы хотите знать о сексе - трактат, написанный более двух тысяч лет назад. Это мудрость самого могущественного и деликатного из искусств, труд о даре любви, о величайшем наслаждении, которое вы можете подарить любимому человеку. Данная видеоэнциклопедия интимной жизни подготовлена ведущими специалистами Лондонского Интститута Сексуальности Человека, фильм призван открыть современным мужчинам различные способы удовлетворения женщины. В основе программы результаты многочисленных анонимных опросов. Добавьте к полученному опыту свое воображение и женщины искренне отблагодарят Вас за полученное наслаждение.

    Примечание:
    В данном DVD использован Эффект Пульфриха
    Хотя эта технология может использоваться для получения хороших пространственных картин, она, строго говоря, не является 3D-видением, поскольку не использует разные картинки для правого и левого глаз.
    Эффект Пульфриха (Pulfrich) - это оптическая иллюзия, которая базируется на том факте, что мозг чуть дольше распознаёт тёмные оптические раздражители, чем светлые.
    Суть при записи с использованием эффекта Пульфриха состоит в том, что либо снимаемый объект (человек, животное, машина и т.д.), либо камера непрерывно движутся в определённом направлении.
    Секрет очков, использующих эффект Пульфриха, заключается в том, что одно стекло затемнено. Хотя оба глаза видят одну и ту же картинку, затемнённый глаз передаёт картинку в мозг чуть позже. Мозг придумывает соответствующую информацию о глубине, которой на самом деле нет.
    Но когда движение прекращается, то видимыми становятся только два измерения - даже с 3D-очками!
    Что интересно, вы получаете действительное пространственное впечатление с 3D-очками - в то время как наблюдатель без очков видит всё в нормальном 2D. Такое не всегда возможно с использованием других 3D-технологий.

    Страна: Великобритания
    Студия: Shoval Film Production
    Продолжительность: 150 мин.
    Перевод: профессиональный, двухголосый

    Файл
    Кодек: MPEG2
    Качество: DVD9
    Видео: PAL 4:3 (720x576) VBR 5779 Kbps
    Звук: Dolby AC3, 3 ch, 48 KHz, 192 Kbps
    Субтитры: отсутствуют

    MediaInfo
    General
    Complete name : D:KAMA SUTRA 3DVIDEO_TSVTS_01_1.VOB
    Format : MPEG-PS
    File size : 1 024 MiB
    Duration : 23mn 29s
    Overall bit rate mode : Variable
    Overall bit rate : 6 093 Kbps

    Video
    ID : 224 (0xE0)
    Format : MPEG Video
    Format version : Version 2
    Format profile : Main@Main
    Format settings, BVOP : No
    Format settings, Matrix : Default
    Format settings, GOP : M=3, N=13
    Duration : 23mn 29s
    Bit rate mode : Variable
    Bit rate : 5 779 Kbps
    Maximum bit rate : 8 300 Kbps
    Width : 720 pixels
    Height : 576 pixels
    Display aspect ratio : 4:3
    Frame rate : 25.000 fps
    Standard : PAL
    Color space : YUV
    Chroma subsampling : 4:2:0
    Bit depth : 8 bits
    Scan type : Interlaced
    Scan order : Top Field First
    Compression mode : Lossy
    Bits/(Pixel*Frame) : 0.557
    Time code of first frame : 01:00:00:00
    Time code source : Group of pictures t_head
    Stream size : 971 MiB (95%)
    Color primaries : BT.601 PAL
    Transfer characteristics : BT.470 System B, BT.470 System G
    Matrix coefficients : BT.601

    Audio
    ID : 189 (0xBD)-128 (0x80)
    Format : AC-3
    Format/Info : Audio Coding 3
    Mode extension : CM (complete main)
    Format settings, Endianness : Big
    Muxing mode : DVD-Video
    Duration : 23mn 29s
    Bit rate mode : Constant
    Bit rate : 192 Kbps
    Channel count : 3 channels
    Channel positions : Front: L R, LFE
    Sampling rate : 48.0 KHz
    Bit depth : 16 bits
    Compression mode : Lossy
    Stream size : 32.3 MiB (3%)

    Menu

    Скриншоты

    Залил: carisha
    Размер: 6.17 GB (6623305728 Bytes)
    Рейтинг →
     (голосов: 1, оценка 3/5, голосовать можно 1 раз )

    Другие торренты по теме:

  • Камасутра в большом городе / Kudiyon Ka Hai Zamaana / 2006 / ПД / DVDRip


    • Комментарии (0):

      Информация

      Информация

        Посетители, находящиеся в группе Гости, не могут оставлять комментарии в данной новости.

        ↓ Меню




        ↓ Опрос

        А Вы добавили сайт в закладки?
        Да
        Не


        Top 10 за месяц (Передачи)