.
Авторизация | Регистрация
Хочешь лучшие торренты? Добавь свой email!
Добавить
  • support: webmaster@servmix.org
» » К нам приехал... - Павел Кашин (2018) WEBRip скачать торрент бесплатно


    К нам приехал... - Павел Кашин (2018) WEBRip скачать торрент бесплатно

    Опубликовал: fregat | Дата: 12-04-2018, 11:00 | .torrent скачали: 0


    К нам приехал... - Павел Кашин (2018) WEBRip
    Исполнитель: Павел Кашин.
    Категория жанра: POP
    Создали в: 2018
    Время просмотра: 01: 24: 25

    Описание фильма
    К нам приехал - музыкальная программа телеканала Ля Минор, дарящая телезрителям радость встречи с полюбившимися исполнителями, а также знакомящая их с новыми музыкальными дарованиями и талантами, которые в прямом эфире отвечают на вопросы и исполняют свои лучшие и совершенно новые песни. В этом выпуске в гостях у Виталия Волина - Павел Кашин.
    Эфир 1 марта 2018 года.
    Тип видео: MKV
    Качество фильма: WEBRip
    Информация о видео кодек: H.264
    Информация о звуке кодек: AAC
    Информация о видео: H.264, ~1 800 Kbps, 768x416 (16: 9), 25fps
    Информация о звуке: AAC, 48000Hz, 2ch, 192 kbps
    MedaInfo
    Complete name : D: Kashin_01.03.18.mkv
    Format : Matroska
    Format version : Version 4/Version 2
    File size : 1.18 GiB
    Duration : 1 h 24 min
    Overall bit rate : 1 994 kb/s
    Encoded date : UTC 2018-04-12 01: 17: 34
    Writing application : mkvmerge v8.3.0 (;Over the Horizon;) 64bit
    Writing library : libebml v1.3.1 + libmatroska v1.4.2
    Video
    ID : 1
    Format : AVC
    Format/Info : Advanced Video Codec
    Format profile : Main@L3
    Format settings, CABAC : Yes
    Format settings, ReFrames : 1 frame
    Format settings, GOP : M=1, N=12
    Codec ID : V_MPEG4/ISO/AVC
    Duration : 1 h 24 min
    Bit rate : 1 799 kb/s
    Width : 768 pixels
    Height : 416 pixels
    Display aspect ratio : 16: 9
    Original display aspect rat : 16: 9
    Frame rate mode : Constant
    Frame rate : 25.000 FPS
    Standard : Component
    Color space : YUV
    Chroma subsampling : 4: 2: 0
    Bit depth : 8 bits
    Scan type : Progressive
    Bits/(Pixel*Frame) : 0.225
    Stream size : 1.06 GiB (90%)
    Default : Yes
    Forced : No
    Color range : Limited
    Audio
    ID : 2
    Format : AAC
    Format/Info : Advanced Audio Codec
    Format profile : LC
    Codec ID : A_AAC
    Duration : 1 h 24 min
    Bit rate : 192 kb/s
    Channel(s) : 2 channels
    Channel positions : Front: L R
    Sampling rate : 48.0 kHz
    Frame rate : 46.875 FPS (1024 spf)
    Compression mode : Lossy
    Stream size : 116 MiB (10%)
    Language : English
    Default : Yes
    Forced : No
    Скриншоты


    Размер скачиваемого торрента: 1.18 GB (1262659468 Bytes)

    К нам приехал... - Павел Кашин (2018) WEBRip
    Рейтинг →
     (голосов: 1, оценка 3/5, голосовать можно 1 раз )

    Другие торренты по теме:

  • К нам приехал... - Павел Кашин (2018) WEBRip


    • Комментарии (0):

      Информация

      Информация

        Посетители, находящиеся в группе Гости, не могут оставлять комментарии в данной новости.

        ↓ Меню




        ↓ Опрос

        А Вы добавили сайт в закладки?
        Да
        Не


        Top 10 за месяц (Передачи)