.
Авторизация | Регистрация
Хочешь лучшие торренты? Добавь свой email!
Добавить
  • support: webmaster@servmix.org
» » Что Где Когда Весенняя серия. (2013) SATRip скачать торрент бесплатно


    Что Где Когда Весенняя серия. (2013) SATRip скачать торрент бесплатно

    Опубликовал: fregat | Дата: 27-02-2015, 11:09 | .torrent скачали: 579

    Что? Где? Когда? - Весенняя серия игр 2013 года

    Что Где Когда Весенняя серия. (2013) SATRipГод выпуска: 2013
    Страна: Россия
    Жанр: Интеллектуальная игра
    Продолжительность: в скринлисте
    Перевод: Не требуетсяРежиссер: Борис КрюкОписание: Популярнейшая командная интеллектуальная игра. В элитарном телевизионном казино игроки-знатоки зарабатывают деньги своим умом, отвечая на вопросы телезрителей. Проводятся летние и зимние игры. В эфире с 1975 года. За четверть века перед глазами телезрителей прошло более 170 игр. Сначала программа обосновалась в баре телецентра в Останкино и провела там 7 лет (с 1975 по 1982 гг.), затем переехала на улицу Герцена, д. 47 (с 1983 по 1986 гг.), потом были три прямых эфира из Болгарии в 1987 г., Центр Международной Торговли на Красной Пресне в 1988-1989 гг., и наконец, Охотничий домик в Нескучном саду, где она обитает по сегодняшний день. Сейчас на адрес Телекомпании Игра приходит по 150000-200000 вопросов в месяц. После обработки и проверки остается в среднем 75 вопросов в год. Каждую игру на столе находится 12 вопросов. Всего за 25 лет было задано 1514 вопросов. В играх клуба приняли участие 168 мужчин и 59 женщин. Всего через клуб прошло 227 знатоков, из них 41 иностранных. Лучшие были награждены призом Хрустальная сова.Качество: SATRip
    Формат: AVI
    Видео кодек: DivX
    Аудио кодек: MP3
    Видео: 720x400 (1.80:1), 25 fps, DivX Codec 6.8.5/6.9.1 ~1499 kbps avg
    Аудио: 48 kHz, MPEG Layer 3, 2 ch, ~128.00 kbps avg


    Команды

    ИГРА 1

    Команда Алеся Мухина
    1. Илья Новиков
    2. Григорий Алхазов
    3. Анатолий Бугаев
    4. Гюнель Бабаева
    5. Эльман Талыбов
    6. Алесь Мухин

    ИГРА 2

    Команда Алёны Повышевой
    1. Владимир Кукарских
    2. Александр Никольский
    3. Алексей Самулёв
    4. Владимир Улахович
    5. Павел Чернявский
    6. Алёна Повышева

    ИГРА 3

    Команда Андрея Козлова
    1. Максим Поташев
    2. Алексей Капустин
    3. Михаил Мун
    4. Владимир Степанов
    5. Елена Александрова
    6. Андрей Козлов

    MI

    Общее
    Полное имя : D:РаздачиЧтоГдеКогда - Весенняя Серия 2013 SATRipЧтоГдеКогда Весення серия 2013 года - Игра первая SATRip.avi
    Формат : AVI
    Формат/Информация : Audio Video Interleave
    Размер файла : 549 Мбайт
    Продолжительность : 46 м.
    Общий поток : 1637 Кбит/сек
    Программа кодирования : VirtualDubMod 1.5.10.2 (build 2540/release)
    Библиотека кодирования : VirtualDub build 32507/release

    Видео
    Идентификатор : 0
    Формат : MPEG-4 Visual
    Параметр BVOP формата : 1
    Параметр QPel формата : Нет
    Параметр GMC формата : Без точки перехода
    Параметр матрицы формата : Default (H.263)
    Режим смешивания : Сжатый битовый поток
    Идентификатор кодека : DX50
    Идентификатор кодека/Подсказка : DivX 5
    Продолжительность : 46 м.
    Битрейт : 1499 Кбит/сек
    Ширина : 720 пикселей
    Высота : 400 пикселей
    Соотношение сторон : 16:9
    Частота кадров : 25,000 кадров/сек
    Цветовое пространство : YUV
    Субдискретизация насыщенности : 4:2:0
    Битовая глубина : 8 бит
    Тип развёртки : Прогрессивная
    Метод сжатия : С потерями
    Бит/(Пиксели*Кадры) : 0.208
    Размер потока : 503 Мбайт (92%)
    Библиотека кодирования : DivX 6.8.5 (UTC 2009-08-20)

    Аудио
    Идентификатор : 1
    Формат : MPEG Audio
    Версия формата : Version 1
    Профиль формата : Layer 3
    Режим : Joint stereo
    Идентификатор кодека : 55
    Идентификатор кодека/Подсказка : MP3
    Продолжительность : 46 м.
    Вид битрейта : Постоянный
    Битрейт : 128 Кбит/сек
    Каналы : 2 канала
    Частота : 48,0 КГц
    Метод сжатия : С потерями
    Размер потока : 43,0 Мбайт (8%)
    Выравнивание : Соединение по промежуткам
    Продолжительность промежутка : 40 мс. (1,00 видеокадр)
    Время предзагрузки промежутка : 504 мс.
    Эфир от 06.04.2013 Скринлист Скриншоты

    Эфир от 13.04.2013 Скринлист Скриншоты

    Эфир от 20.04.2013 Скринлист Скриншоты


    Размер: 2.00 GB (2144827658 Bytes)
    Рейтинг →
     (голосов: 1, оценка 5/5, голосовать можно 1 раз )

    Другие торренты по теме:

  • Что Где Когда в Беларуси - Весенняя серия игр. Вторая отборочная игра (2013) DVBRip by Sergey911
  • Что Где Когда Весенняя серия. Игра первая (2013) SATRip
  • Что Где Когда Весенняя серия. Игра вторая (2013) SATRip
  • Что Где Когда Весенняя серия. (2013) HDTV 1080i
  • Что Где Когда - Летняя серия игр 2013 года - Игра первая (2013) DVB
  • Что Где Когда - Летняя серия игр 2013 года - Игра вторая (2013) HDTVRip
  • Что Где Когда - Летняя серия игр 2013 года - Игра вторая (2013) DVB
  • Что Где Когда - Летняя серия игр 2013 года - Игра третья (2013) HDTVRip


    • Комментарии (0):

      Информация

      Информация

        Посетители, находящиеся в группе Гости, не могут оставлять комментарии в данной новости.

        ↓ Меню




        ↓ Опрос

        А Вы добавили сайт в закладки?
        Да
        Не


        Top 10 за месяц (Передачи)