.
Авторизация | Регистрация
Хочешь лучшие торренты? Добавь свой email!
Добавить
  • support: webmaster@servmix.org
» » Максим Дунаевский - Три мушкетера (1981) (1995) FLAC скачать торрент бесплатно


    Максим Дунаевский - Три мушкетера (1981) (1995) FLAC скачать торрент бесплатно

    Опубликовал: fregat | Дата: 27-02-2015, 11:09 | .torrent скачали: 694

    Максим Дунаевский - Три мушкетера (1981) (1995) FLAC

    Жанр: Musical
    Год выпуска диска: 1995
    Год записи: 1981 ???
    Производитель диска: RDM
    Аудио кодек: FLAC
    Тип рипа: image .cue
    Битрейт аудио: lossless
    Продолжительность: 01:26:51

    Действующие лица и исполнители:
    Д;Артаньян, отец д;Артаньяна - Михаил Боярский
    Миледи, Аббатиса, Кэт - Людмила Гурченко
    Констанция - Людмила Ларина
    Королева - Жанна Рождественская
    Король - Владимир Чуйкин
    Кардинал Ришелье - Павел Бабаков
    Атос - Вячеслав Назаров
    Арамис - Леонид Серебренников
    Портос - Марк Айзикович
    Де Тревиль - Максим Дунаевский
    Бекингем - Геннадий Трофимов
    Кармелитки - Лидия Пичугина, Нина Пичугина
    ВИА Фестиваль

    Композитор: М. Дунаевский
    Дирижер: Д. Атовмян
    Звукоподражатель: Ю. Григорьев
    Тексты песен: Ю. Ряшенцев
    Постановка: М. Айзенберга по страницам романа А. Дюма

    Треклист

    01. В Дорогу! (2:54)
    02. Шпионы Кардинала (4:22)
    03. Песенка Кэт (1:46)
    04. Песенка Де Тревиля (2:18)
    05. Дуэт Де Тревиля и Д;Артньяна (2:53)
    06. Песенка Арамиса (3:59)
    07. Гвардейцы Кардинала (2:56)
    08. Друзья (4:00)
    09. Людовик XIII (Одинокий) (3:56)
    10. Людовик XIII (Ревнивый) (1:23)
    11. Констанция (1:19)
    12. Дуэт Королевы Анны и герцога Бекингэма (2:55)
    13. Дуэт Кардинала и Королевы (2:15)
    14. Отчаяние Королевы (2:55)
    15. Песенка Мушкетёров (3:14)

    01. Песенка Мушкетёров (3:27)
    02. Дуэт Констанции и Д;Артаняна (3:42)
    03. Почему бы нет? (2:54)
    04. Один за всех и все за одного (3:11)
    05. Людовик XIII (Разгневанный) (1:00)
    06. Ответ Королевы (1:11)
    07. История Атоса (5:05)
    08. Песенка кармелиток (3:06)
    09. Миледи (4:04)
    10. Аббатиса (2:19)
    11. Смерть Констанции (4:27)
    12. Осада Ля Рошели (2:01)
    13. Приятно вспомнить в час заката... (3:18)
    14. Вместе навсегда (4:01)


    EAC log:
    CD1

    Exact Audio Copy V0.99 prebeta 5 from 4. May 2009

    Отчёт EAC об извлечении, выполненном 30. декабря 2009, 9:56

    - / Tri Mushketera CD1

    Дисковод: ASUS CRW-5224A Adapter: 0 ID: 0

    Режим чтения : Достоверность
    Использование точного потока : Да
    Отключение кэша аудио : Да
    Использование указателей C2 : Нет

    Коррекция смещения при чтении : 6
    Способность читать области Lead-in и Lead-out : Нет
    Заполнение пропущенных сэмплов тишиной : Да
    Удаление блоков с тишиной в начале и конце : Нет
    При вычислениях CRC использовались нулевые сэмплы : Да
    Интерфейс : Встроенный Win32-интерфейс для Win NT/2000

    Выходной формат : Пользовательский кодировщик
    Выбранный битрейт : 896 kBit/s
    Качество : Высокий
    Добавление ID3-тэга : Нет
    Утилита сжатия : C:Program FilesExact Audio CopyFlacflac.exe
    Дополнительные параметры : -T DATE=%y -T GENRE=%m -8 -V %s

    TOC извлечённого CD

    Трек | Старт | Длительность | Начальный сектор | Конечный сектор
    ---------------------------------------------------------------------
    1 | 0:00.00 | 2:53.70 | 0 | 13044
    2 | 2:53.70 | 4:21.68 | 13045 | 32687
    3 | 7:15.63 | 1:46.12 | 32688 | 40649
    4 | 9:02.00 | 2:18.07 | 40650 | 51006
    5 | 11:20.07 | 2:52.73 | 51007 | 63979
    6 | 14:13.05 | 3:59.20 | 63980 | 81924
    7 | 18:12.25 | 2:55.48 | 81925 | 95097
    8 | 21:07.73 | 3:59.42 | 95098 | 113064
    9 | 25:07.40 | 3:56.25 | 113065 | 130789
    10 | 29:03.65 | 1:23.00 | 130790 | 137014
    11 | 30:26.65 | 1:18.70 | 137015 | 142934
    12 | 31:45.60 | 2:55.17 | 142935 | 156076
    13 | 34:41.02 | 2:14.41 | 156077 | 166167
    14 | 36:55.43 | 2:55.17 | 166168 | 179309
    15 | 39:50.60 | 3:14.25 | 179310 | 193884

    Характеристики диапазона извлечения и сообщения об ошибках

    Выбранный диапазон

    Имя файла I:WorkТри мушкетераTri Mushketera CD1.wav

    Пиковый уровень 100.0 %
    Качество диапазона 99.9 %
    CRC теста FC2C9BA3
    CRC копии FC2C9BA3
    Копирование... OK

    Ошибок не произошло

    AccurateRip: сводка

    Трек 1 нет в базе данных
    Трек 2 нет в базе данных
    Трек 3 нет в базе данных
    Трек 4 нет в базе данных
    Трек 5 нет в базе данных
    Трек 6 нет в базе данных
    Трек 7 нет в базе данных
    Трек 8 нет в базе данных
    Трек 9 нет в базе данных
    Трек 10 нет в базе данных
    Трек 11 нет в базе данных
    Трек 12 нет в базе данных
    Трек 13 нет в базе данных
    Трек 14 нет в базе данных
    Трек 15 нет в базе данных

    Ни одного трека нет в базе AccurateRip

    Конец отчёта


    CD2

    Exact Audio Copy V0.99 prebeta 5 from 4. May 2009

    Отчёт EAC об извлечении, выполненном 30. декабря 2009, 10:52

    - / Tri Mushketera CD2

    Дисковод: ASUS CRW-5224A Adapter: 0 ID: 0

    Режим чтения : Достоверность
    Использование точного потока : Да
    Отключение кэша аудио : Да
    Использование указателей C2 : Нет

    Коррекция смещения при чтении : 6
    Способность читать области Lead-in и Lead-out : Нет
    Заполнение пропущенных сэмплов тишиной : Да
    Удаление блоков с тишиной в начале и конце : Нет
    При вычислениях CRC использовались нулевые сэмплы : Да
    Интерфейс : Встроенный Win32-интерфейс для Win NT/2000

    Выходной формат : Пользовательский кодировщик
    Выбранный битрейт : 896 kBit/s
    Качество : Высокий
    Добавление ID3-тэга : Нет
    Утилита сжатия : C:Program FilesExact Audio CopyFlacflac.exe
    Дополнительные параметры : -T DATE=%y -T GENRE=%m -8 -V %s

    TOC извлечённого CD

    Трек | Старт | Длительность | Начальный сектор | Конечный сектор
    ---------------------------------------------------------------------
    1 | 0:00.00 | 3:26.65 | 0 | 15514
    2 | 3:26.65 | 3:42.20 | 15515 | 32184
    3 | 7:09.10 | 2:54.10 | 32185 | 45244
    4 | 10:03.20 | 3:11.12 | 45245 | 59581
    5 | 13:14.32 | 0:59.43 | 59582 | 64049
    6 | 14:14.00 | 1:11.08 | 64050 | 69382
    7 | 15:25.08 | 5:04.57 | 69383 | 92239
    8 | 20:29.65 | 3:06.05 | 92240 | 106194
    9 | 23:35.70 | 4:04.13 | 106195 | 124507
    10 | 27:40.08 | 2:18.47 | 124508 | 134904
    11 | 29:58.55 | 4:27.02 | 134905 | 154931
    12 | 34:25.57 | 2:01.36 | 154932 | 164042
    13 | 36:27.18 | 3:18.04 | 164043 | 178896
    14 | 39:45.22 | 4:01.23 | 178897 | 196994

    Характеристики диапазона извлечения и сообщения об ошибках

    Выбранный диапазон

    Имя файла I:WorkТри мушкетераTri Mushketera CD2.wav

    Пиковый уровень 100.0 %
    Качество диапазона 100.0 %
    CRC теста 50B4A6FE
    CRC копии 50B4A6FE
    Копирование... OK

    Ошибок не произошло

    AccurateRip: сводка

    Трек 1 нет в базе данных
    Трек 2 нет в базе данных
    Трек 3 нет в базе данных
    Трек 4 нет в базе данных
    Трек 5 нет в базе данных
    Трек 6 нет в базе данных
    Трек 7 нет в базе данных
    Трек 8 нет в базе данных
    Трек 9 нет в базе данных
    Трек 10 нет в базе данных
    Трек 11 нет в базе данных
    Трек 12 нет в базе данных
    Трек 13 нет в базе данных
    Трек 14 нет в базе данных

    Ни одного трека нет в базе AccurateRip

    Конец отчёта



    Содержание индексной карты (.CUE):
    CD1

    REM GENRE Musical
    REM DISCID D90A190F
    REM COMMENT ExactAudioCopy v0.99pb5
    PERFORMER
    TITLE Tri Mushketera CD1
    FILE Tri Mushketera CD1.flac WAVE
    TRACK 01 AUDIO
    TITLE В Дорогу!
    PERFORMER
    INDEX 01 00:00:00
    TRACK 02 AUDIO
    TITLE Шпионы Кардинала
    PERFORMER
    INDEX 01 02:53:70
    TRACK 03 AUDIO
    TITLE Песенка Кэт
    PERFORMER
    INDEX 01 07:15:63
    TRACK 04 AUDIO
    TITLE Песенка Де Тревиля
    PERFORMER
    INDEX 01 09:02:00
    TRACK 05 AUDIO
    TITLE Дуэт Де Тревиля и Д;Артньяна
    PERFORMER
    INDEX 01 11:20:07
    TRACK 06 AUDIO
    TITLE Песенка Арамиса
    PERFORMER
    INDEX 01 14:13:05
    TRACK 07 AUDIO
    TITLE Гвардейцы Кардинала
    PERFORMER
    INDEX 01 18:12:25
    TRACK 08 AUDIO
    TITLE Друзья
    PERFORMER
    INDEX 01 21:07:73
    TRACK 09 AUDIO
    TITLE Людовик XIII (Одинокий)
    PERFORMER
    INDEX 01 25:07:40
    TRACK 10 AUDIO
    TITLE Людовик XIII (Ревнивый)
    PERFORMER
    INDEX 01 29:03:65
    TRACK 11 AUDIO
    TITLE Констанция
    PERFORMER
    INDEX 01 30:26:65
    TRACK 12 AUDIO
    TITLE Дуэт Королевы Анны и герцога Бекингэма
    PERFORMER
    INDEX 01 31:45:60
    TRACK 13 AUDIO
    TITLE Дуэт Кардинала и Королевы
    PERFORMER
    INDEX 01 34:41:02
    TRACK 14 AUDIO
    TITLE Отчаение Королевы
    PERFORMER
    INDEX 01 36:55:43
    TRACK 15 AUDIO
    TITLE Песенка Мушкетёров
    PERFORMER
    INDEX 01 39:50:60



    CD2

    REM GENRE Musical
    REM DISCID BD0A420E
    REM COMMENT ExactAudioCopy v0.99pb5
    PERFORMER
    TITLE Tri Mushketera CD2
    FILE Tri Mushketera CD2.flac WAVE
    TRACK 01 AUDIO
    TITLE Песенка Мушкетёров
    PERFORMER
    INDEX 01 00:00:00
    TRACK 02 AUDIO
    TITLE Дуэт Констанции и Д;Артаняна
    PERFORMER
    INDEX 01 03:26:65
    TRACK 03 AUDIO
    TITLE Почему бы нет?
    PERFORMER
    INDEX 01 07:09:10
    TRACK 04 AUDIO
    TITLE Один за всех и все за одного
    PERFORMER
    INDEX 01 10:03:20
    TRACK 05 AUDIO
    TITLE Людовик XIII (Разгневанный)
    PERFORMER
    INDEX 01 13:14:32
    TRACK 06 AUDIO
    TITLE Ответ Королевы
    PERFORMER
    INDEX 01 14:14:00
    TRACK 07 AUDIO
    TITLE История Атоса
    PERFORMER
    INDEX 01 15:25:08
    TRACK 08 AUDIO
    TITLE Песенка кармелиток
    PERFORMER
    INDEX 01 20:29:65
    TRACK 09 AUDIO
    TITLE Миледи
    PERFORMER
    INDEX 01 23:35:70
    TRACK 10 AUDIO
    TITLE Аббатиса
    PERFORMER
    INDEX 01 27:40:08
    TRACK 11 AUDIO
    TITLE Смерть Констанции
    PERFORMER
    INDEX 01 29:58:55
    TRACK 12 AUDIO
    TITLE Осада Ля Рошели
    PERFORMER
    INDEX 01 34:25:57
    TRACK 13 AUDIO
    TITLE Приятно вспомнить в час заката...
    PERFORMER
    INDEX 01 36:27:18
    TRACK 14 AUDIO
    TITLE Вместе навсегда
    PERFORMER
    INDEX 01 39:45:22



    С пластинки

    В 1974 году в московском ТЮЗе состоялась премьера музыкального спектакля Три мушктера. Спектакль имел большой успех, хотя существовало и существует неисчислимое количество других театральных и киномушкетеров. Многие постановки и, особенно, кинофильмы по роману А. Дюма имеют всемирную известность.
    Однако авторам этого задорного спектакля - драматургу Марку Розовскому, поэту Юрию Ряшенцеву, композитору Максиму Дунаевскому, а также режиссеру-постановщику Александру Товстоногову - удалось по-своему взглянуть на героев и события любимой всеми книги, сказать зрителю нечто новое, что заставляет его как в первый раз переживать все перипетии знакомого сюжета. Секрет заключается в том, что всем известные герои романа А. Дюма, их характеры, поведение, мотивировки поступков в спектакле были максимально приближены к нашим дням, к психологии современной молодежи, ее духовным запросам. Этому способствовала яркая музыка Максима Дунаевского, сыгравшая в спектакле одну из главных ролей.
    М. Дунаевский, постоянно пишущий музыку для театра, умеет увлечь зрителя или слушателя своим собственным отношением к драматургическому материалу. Вот и в Трех мушкетерах романтически возвышенный симфонический фрагмент и незатейливая песенка являются выразительным п средствами, которыми пользуется композитор для расстановки нужных смысловых и эмоциональных акцентов, уверенно ведя нас за своим прочтением романа.
    В музыкальной стилистике спектакля важное место занимают современные песенные интонации, которые делают героев произведения близкими молодежной аудитории. Так Д;Артаньян из супермена, каким его трактует западное кино, превратился в реального, земного парня, обладающего наряду с отвагой и благородством еще и обычнымн человеческими слабостями. Явный комедийный элемент, идущий от ироничности авторов по отношению к дворцовым интригам, конечно же, наивным с точки зрения политических коллизий XX века, перемежаясь с искренней романтичностью, еще больше подчеркивает современную направленность спектакля.
    Дальнейшая жизнь этого мюзикла еще больше подтверждает правомерность новой версии Трех мушкетеров. Спектакль в расширенной музыкальной редакции ставится на сценах многих музыкальных театров нашей страны и за рубежом, и везде ему сопутствует успех.
    В 1978 году та же авторская группа вместе с кинорежиссером Георгием Юнгвальд-Хилькеви-чем создает трехсерийный телефильм Д;Артаиьян и три мушкетера. Безусловно, и в фильме также главенствующая роль принадлежит музыке, частично знакомой нам по спектаклю, но в большой своей части написанной заново. Многие песпн с остроумными стихами Ю. Ряшенцева быстро приобрели широкую популярность.
    На этих трех дисках записаны все лучшие музыкальные номера и песни из спектакля и телефильма. Инсценировку для этого альбома сделал режиссер Марк Айзенберг. Удачный драматургический прием инсценировщика (рассказ самого Д;Артаньяна о своей молодости и приключениях) позволил включить в альбом песни и музыкальные номера, которые по разным причинам не были использованы ни в театре, ни в кино. Так что слушателей, помимо встречи с уже известной музыкой М. Дунаевского, ожидает ряд сюрпризов.
    Я не сомневаюсь, что сочная и образная музыка Трех мушкетеров порадует слушателей выразительными мелодиями, органично сочетающимися с острой ритмикой и современной аранжировкой, которая не является самоцелью, а верно служит раскрытию содержания.
    Вместе с известными, популярными артистами М. Боярским, Л. Гурченко, Ж. Рождественской, Л. Серебренниковым, П. Бабаковым, Г. Трофимовым в фильме поют пока малоизвестные, но многообещающие исполнители. Их объединяет в одну мушкетерскую компанию редко встречающееся синтетическое дарование - музыкально-драматическое. Поэтому все партии, порой весьма трудные в вокальном и актерском планах, исполнены отлично.
    Очень большой объем студийной работы проделал вокально-инструментальный ансамбль Фестиваль, организованный в 1978 году. Благодаря тому, что почти каждый исполнитель этого небольшого коллектива владеет несколькими инструментами, создается богатое звучание, выгодно отличающееся от звучания стандартных ВИА и порой достигающее оркестрального.
    Естественно, окончательную оценку всей этой работы дадут слушатели и любители грамзаписи. Как всегда, последнее слово за ними. Но один, главный вывод уже можно сделать вполне определенно: Д;Артаньян и три мушкетера продолжают полнокровно жить и сегодня, заражая всех нас своей искрометной энергией и оптимизмом!

    Залил: geka9999
    Размер: 517.04 MB (542156264 Bytes)
    Рейтинг →
     (голосов: 1, оценка 5/5, голосовать можно 1 раз )

    Другие торренты по теме:

  • Максим Коломиец - Бронеавтомобиль Остин. Предтеча бронетанковых войск России (2018) PDF
  • Где ты теперь, Максим / 1964 / РУ / TVRip
  • Максим Басманов - Секреты Photoshop. Обучающий видеокурс (2011) PCRec
  • Госдеп - 3 с Ксенией Собчак. Нужно ли нам распустить Госдуму Максим Рохмистров и Георгий Сатаров (2013) SATRip от РиперАМ
  • Шахов Максим - Сборник произведений (2000-2013) FB2
  • МакSим (Максим) - Дискография (2006-2010) MP3
  • Максим Леонидов - Коллекция (1997-2011) МР3 от IMA-Sound
  • Кустов Максим - Реальная история штрафбатов (2013) MP3


    • Комментарии (0):

      Информация

      Информация

        Посетители, находящиеся в группе Гости, не могут оставлять комментарии в данной новости.

        ↓ Меню




        ↓ Опрос

        А Вы добавили сайт в закладки?
        Да
        Не


        Top 10 за месяц (Музыка)