.
Авторизация | Регистрация
Хочешь лучшие торренты? Добавь свой email!
Добавить
  • support: webmaster@servmix.org
» » Команда Умизуми / Team Umizoomi (2010) SATRip | D скачать торрент бесплатно


    Команда Умизуми / Team Umizoomi (2010) SATRip | D скачать торрент бесплатно

    Опубликовал: Админ | Дата: 27-02-2015, 11:09 | .torrent скачали: 1343

    Команда Умизуми / Team Umizoomi (2010) SATRip | D

    Информация о фильме
    Название: Команда Умизуми
    Оригинальное название: Team Umizoomi
    Год выхода: 2010
    Жанр: мультфильм, семейный
    Режиссер: Стивен Коннер / Steven Conner, Мэтт Шеридан / Matt Sheridan
    В ролях: Этан Кемпнер, Донован Паттон, П.Т. Уолкли, Софи Фокс, Линда Бек, Оливия Арчер, Даниэль Котч, Кайл Девон Бенитез, Джейн Дженнаро

    О фильме:
    Девочка Милли, её брат Гео и их лучший друг робот — это не просто ведущие обучающей программы, это мини-команда супергероев, которые используют свои могучие математические способности для решения сложных проблем, с которыми юные зрители могут столкнуться в реальной жизни.

    Под аккомпанемент веселой, запоминающейся музыки в стиле дошкольный поп-рок, команда Умизуми совершает прогулку по ярко-красочному городу Уми — Сити, преодолевая всевозможные препятствия с помощью своего фирменного метода под названием Смелая математика Для наших героев нет ничего невозможного!
    Список серий
    1 сезон
    01. Фестиваль бумажных змеев (The Kite Festival)
    02. Аквариум (The Aquarium Fix-It)
    03. Карнавал (Carnival)
    04. Пикник (Picnic)
    05. Супер поход в Супермаркет (Super Trip to the Supermarket)
    06. Герои метро (Subway Heroes)
    07. Молоко (The Milk Out)
    08. Музей динозавров (The Dinosaur Museum Mishap)
    09. Игрушечный парад (The Rolling Toy Parade)
    10. Специальна доставка (Special Delivery)
    11. Самолёт Энди (Ready for Take-Off)
    12. Грузовик мороженого (Ice Cream Truck)
    13. Шоу игрушечных поездов дикого запада (The Wild West Toy Train Show)
    14. Концерт танцующей бабочки (The Butterfly Dance Show)
    15. Слонёнок - фантан (The Elephant Sprinkler)
    16. Герои детской площадки (Playground Heroes)
    17. Книжка для Оливии (Special Delivery)
    18. Ракушки (Favorite Things Show)
    19. Большие лодочные гонки (The Big Boat Race)

    2 сезон
    01. Гонка вокруг Уми сити (Race Around Umi City)
    07. День в музее (Day at the Museum)
    10. Сумасшедшие Ролики (Crazy Skates)
    11. Милли спасает положение (Milli Saves the Day)
    12. Пожарный умимобиль (Umi Fire Truck)

    Официальный сайт

    Страна: США
    Студия: Curious Pictures, Nickelodeon Productions
    Продолжительность: ~25 минут серия
    Перевод: Профессиональный (дублированный)

    Файл
    Кодек: XvID / MP3
    Качество: SATRip
    Видео: Xvid, 640x480 (4:3), 25.00 fps, ~1900Kbps
    Звук: МР3 44Hz 2ch stereo 128kbps

    Скриншоты
    MediaInfo
    General
    Complete name : umizumiКнижка для Оливии (Special Delivery).avi
    Format : AVI
    Format/Info : Audio Video Interleave
    File size : 344 MiB
    Duration : 22mn 56s
    Overall bit rate : 2 097 Kbps
    Writing library : TMPGEnc 4.0 XPress Version. 4.7.7.307

    Video
    ID : 0
    Format : MPEG-4 Visual
    Format profile : Advanced Simple@L5
    Format settings, BVOP : Yes
    Format settings, QPel : No
    Format settings, GMC : No warppoints
    Format settings, Matrix : Default (MPEG)
    Muxing mode : Packed bitstream
    Codec ID : XVID
    Codec ID/Hint : XviD
    Duration : 22mn 56s
    Bit rate : 1 898 Kbps
    Width : 640 pixels
    Height : 480 pixels
    Display aspect ratio : 4:3
    Frame rate : 25.000 fps
    Color space : YUV
    Chroma subsampling : 4:2:0
    Bit depth : 8 bits
    Scan type : Progressive
    Compression mode : Lossy
    Bits/(Pixel*Frame) : 0.247
    Stream size : 311 MiB (90%)
    Writing library : XviD 1.2.1 (UTC 2008-12-04)

    Audio
    ID : 1
    Format : MPEG Audio
    Format version : Version 1
    Format profile : Layer 3
    Mode : Joint stereo
    Codec ID : 55
    Codec ID/Hint : MP3
    Duration : 22mn 56s
    Bit rate mode : Constant
    Bit rate : 192 Kbps
    Channel(s) : 2 channels
    Sampling rate : 48.0 KHz
    Compression mode : Lossy
    Stream size : 31.5 MiB (9%)
    Alignment : Aligned on interleaves
    Interleave, duration : 250 ms (6.25 video frames)
    Interleave, preload duration : 216 ms

    Размер: 7.97 GB (8554130162 Bytes)
    Рейтинг →
     (голосов: 1, оценка 4/5, голосовать можно 1 раз )

    Другие торренты по теме:

  • Команда Умизуми / Team Umizoomi (2012) DVB | D


    • Комментарии (0):

      Информация

      Информация

        Посетители, находящиеся в группе Гости, не могут оставлять комментарии в данной новости.

        ↓ Меню




        ↓ Опрос

        А Вы добавили сайт в закладки?
        Да
        Не


        Top 10 за месяц (Мультфильмы)

        Ловушка для кошек / Macskafogo (1986) DVDRip-AVC от ExKinoRay | D

        (скачиваний: 7)
        Naruto Фильмы / Naruto Movies (2003-2012) BDRip | SHIZA Project

        (скачиваний: 6)
        Рататуй / Ratatouille (2007) BD-Remux 1080p | 3D-Video скачать через торрент бесплатно
        Рататуй/Ratatouille
        (скачиваний: 5)
        Братец медвежонок 2: Лоси в бегах / Brother Bear 2 (2006) BDRemux 1080p от HDTracker

        (скачиваний: 5)
        Русалочка: Начало истории Ариэль / The Little Mermaid: Ariels Beginning (2008) BDRip от HQCLUB
        Русалочка: Начало истории Ариэль / The Little Mermaid: Ariel;s Beginning (2008) BDRip от HQCLUB
        (скачиваний: 5)
        Братец медвежонок 2 / Brother Bear 2 (2006)
        Братец медвежонок 2 / Brother Bear 2 (2006)
        (скачиваний: 4)
        Похождения императора. Дилогия / The Emperors New Groove. Kronks New Groove (2000, 2005) BDRip от RG Jolly Roger
        Похождения императора. Дилогия / The Emperor;s New Groove. Kronk;s New Groove (2000, 2005) BDRip от RG Jolly Roger
        (скачиваний: 4)
        Рататуй / Ratatouille (2007) BDRip-AVC от New-Team | D скачать через торрент бесплатно

        (скачиваний: 4)
        Питер Пэн / Peter Pan (1953) DVD9+DVD5 | D | Коллекционное издание

        (скачиваний: 4)
        Сад изящных слов / Сад слов / Kotonoha no Niwa / The Garden of Words (2013) BDRip-720p | D скачать через торрент бесплатно

        (скачиваний: 4)