.
Авторизация | Регистрация
Хочешь лучшие торренты? Добавь свой email!
Добавить
  • support: webmaster@servmix.org
» » Питер Пэн / Peter Pan (1953) DVD9+DVD5 | D | Коллекционное издание скачать торрент бесплатно


    Питер Пэн / Peter Pan (1953) DVD9+DVD5 | D | Коллекционное издание скачать торрент бесплатно

    Опубликовал: fregat | Дата: 25-06-2015, 12:18 | .torrent скачали: 179


    Питер Пэн / Peter Pan (1953) DVD9+DVD5 | D | Коллекционное издание
    Детально о кино
    Русское название: Питер Пэн
    Русское название в мировом прокате: Peter Pan
    Создали в: 1953
    Категория жанра: мультфильм, фэнтези, приключения, семейный, музыка
    Главный режиссер: Клайд Джероними, Уилфред Джексон, Хэмильтон Ласки, Джек Кинни

    Актеры
    Бобби Дрисколл, Катрин Бомонт, Ганс Конрид, Билл Томпсон, Хэзер Эйнджел, Пол Коллинз, Томми Ласки, Кэнди Кандидо, Том Конуэй, Люсиль Блисс

    Сюжет фильма

    Уолт Дисней зовет нас с собой в волшебную страну Неверленд, где живет удивительный мальчик, который умеет летать и отказывается взрослеть. Это веселый выдумщик, храбрец и проказник Питер Пэн!
    Однажды в поисках собственной тени Питер попадает в Лондон нашего мира и становится другом маленькой Венди и ее братьев Майкла и Джона, и, конечно же, он берет своих ночных друзей с собой в Неверленд, навстречу потрясающим приключениям.
    Героям предстоит встретиться с феей Тинкербелл и дружной ватагой Питера Пэна, спасти индейскую принцессу Тигровую Лилию из лап пиратов и сразиться с их демоническим главарем капитаном Крюком!..


    Нет возрастных ограничений
    Снималось в: США
    Киностудия: Walt Disney Productions
    Время просмотра: 74 мин./01: 14
    Перевод текста: полное дублирование
    Файл
    Кодек для видео: MPEG2
    Качество фильма: DVD9+DVD5 ВидеоСервис
    Информация о видео: PAL 4: 3 (720x576@768x576) VBR 4949 Kbps, 25.000 fps
    Информация о звуке 1: Dolby AC3, 6 ch, 48.0 KHz, 448 Кbps (английский)
    Информация о звуке 2: Dolby AC3, 6 ch, 48.0 KHz, 384 Кbps (греческий)
    Информация о звуке 3: Dolby AC3, 6 ch, 48.0 KHz, 384 Kbps (иврит)
    Информация о звуке 4: Dolby AC3, 2 ch, 48.0 KHz, 192 Kbps (русский)
    Информация о звуке 5: Dolby AC3, 1 ch, 48.0 KHz, 96 Kbps (комментарии)
    Субтитры: русские, английские, греческие, украинские, латышские, литовские, эстонские, болгарские, иврит
    Дополнительные материалы
    Коллекция песен ДиснеяНовый мультфильм Динь-ДилиньЧитаем вместеЗа кулисами ДиснеяНовые увлекательные игрыВиртуальный полет Питера
    MediaInfo
    Общее
    Полное имя : D: PITER_PENPITER_PEN_1VIDEO_TSVTS_01_1.VOB
    Формат : MPEG-PS
    Размер файла : 1024 Мбайт
    Продолжительность : 21 м.
    Режим общего битрейта : Переменный
    Общий поток : 6584 Кбит/сек
    Видео
    Идентификатор : 224 (0xE0)
    Формат : MPEG Video
    Версия формата : Version 2
    Профиль формата : Main@Main
    Параметр BVOP формата : Да
    Параметр матрицы формата : Выборочная
    Параметр GOP формата : Variable
    Структура изображения : Frame
    Продолжительность : 21 м.
    Вид битрейта : Переменный
    Битрейт : 4949 Кбит/сек
    Максимальный битрейт : 9800 Кбит/сек
    Ширина : 720 пикселей
    Высота : 576 пикселей
    Соотношение сторон : 4: 3
    Частота кадров : 25, 000 кадров/сек
    Стандарт вещания : PAL
    Цветовое пространство : YUV
    Субдискретизация насыщенности : 4: 2: 0
    Битовая глубина : 8 бит
    Тип развёртки : Чересстрочная
    Порядок развёртки : Верхнее поле первое
    Метод сжатия : С потерями
    Бит/(Пиксели*Кадры) : 0.477
    Временной код первого кадра : 00: 59: 59: 00
    Оригинал временного кода : Group of pictures t_head
    GOP, открыто/закрыто : Открыто
    GOP, открыто/закрыто на первом кадре : Закрыто
    Размер потока : 770 Мбайт (75%)
    Аудио #1
    Идентификатор : 189 (0xBD)-128 (0x80)
    Формат : AC-3
    Формат/Информация : Audio Coding 3
    Расширение режима : CM (complete main)
    Параметр Endianness формата : Big
    Режим смешивания : DVD-Video
    Продолжительность : 21 м.
    Вид битрейта : Постоянный
    Битрейт : 448 Кбит/сек
    Каналы : 6 каналов
    Расположение каналов : Front: L C R, Side: L R, LFE
    Частота : 48, 0 КГц
    Метод сжатия : С потерями
    Размер потока : 69, 7 Мбайт (7%)
    Аудио #2
    Идентификатор : 189 (0xBD)-129 (0x81)
    Формат : AC-3
    Формат/Информация : Audio Coding 3
    Профиль формата : Dolby Digital
    Расширение режима : CM (complete main)
    Параметр Endianness формата : Big
    Режим смешивания : DVD-Video
    Продолжительность : 21 м.
    Вид битрейта : Постоянный
    Битрейт : 192 Кбит/сек
    Каналы : 2 канала
    Расположение каналов : Front: L R
    Частота : 48, 0 КГц
    Метод сжатия : С потерями
    Размер потока : 29, 9 Мбайт (3%)
    Аудио #3
    Идентификатор : 189 (0xBD)-130 (0x82)
    Формат : AC-3
    Формат/Информация : Audio Coding 3
    Расширение режима : CM (complete main)
    Параметр Endianness формата : Big
    Режим смешивания : DVD-Video
    Продолжительность : 21 м.
    Вид битрейта : Постоянный
    Битрейт : 384 Кбит/сек
    Каналы : 6 каналов
    Расположение каналов : Front: L C R, Side: L R, LFE
    Частота : 48, 0 КГц
    Метод сжатия : С потерями
    Размер потока : 59, 7 Мбайт (6%)
    Аудио #4
    Идентификатор : 189 (0xBD)-131 (0x83)
    Формат : AC-3
    Формат/Информация : Audio Coding 3
    Расширение режима : CM (complete main)
    Параметр Endianness формата : Big
    Режим смешивания : DVD-Video
    Продолжительность : 21 м.
    Вид битрейта : Постоянный
    Битрейт : 384 Кбит/сек
    Каналы : 6 каналов
    Расположение каналов : Front: L C R, Side: L R, LFE
    Частота : 48, 0 КГц
    Метод сжатия : С потерями
    Размер потока : 59, 7 Мбайт (6%)
    Аудио #5
    Идентификатор : 189 (0xBD)-132 (0x84)
    Формат : AC-3
    Формат/Информация : Audio Coding 3
    Расширение режима : CM (complete main)
    Параметр Endianness формата : Big
    Режим смешивания : DVD-Video
    Продолжительность : 21 м.
    Вид битрейта : Постоянный
    Битрейт : 96, 0 Кбит/сек
    Каналы : 1 канал
    Расположение каналов : Front: C
    Частота : 48, 0 КГц
    Метод сжатия : С потерями
    Размер потока : 14, 9 Мбайт (1%)
    Текст #1
    Идентификатор : 189 (0xBD)-42 (0x2A)
    Формат : RLE
    Формат/Информация : Run-length encoding
    Режим смешивания : DVD-Video
    Продолжительность : 21 м.
    Задержка видео : 1 с. 720 мс.
    Текст #2
    Идентификатор : 189 (0xBD)-43 (0x2B)
    Формат : RLE
    Формат/Информация : Run-length encoding
    Режим смешивания : DVD-Video
    Продолжительность : 21 м.
    Задержка видео : 1 с. 720 мс.
    Текст #3
    Идентификатор : 189 (0xBD)-44 (0x2C)
    Формат : RLE
    Формат/Информация : Run-length encoding
    Режим смешивания : DVD-Video
    Продолжительность : 21 м.
    Задержка видео : 1 с. 720 мс.
    Текст #4
    Идентификатор : 189 (0xBD)-45 (0x2D)
    Формат : RLE
    Формат/Информация : Run-length encoding
    Режим смешивания : DVD-Video
    Продолжительность : 21 м.
    Задержка видео : 2 с. 0 мс.
    Текст #5
    Идентификатор : 189 (0xBD)-32 (0x20)
    Формат : RLE
    Формат/Информация : Run-length encoding
    Режим смешивания : DVD-Video
    Текст #6
    Идентификатор : 189 (0xBD)-33 (0x21)
    Формат : RLE
    Формат/Информация : Run-length encoding
    Режим смешивания : DVD-Video
    Текст #7
    Идентификатор : 189 (0xBD)-34 (0x22)
    Формат : RLE
    Формат/Информация : Run-length encoding
    Режим смешивания : DVD-Video
    Текст #8
    Идентификатор : 189 (0xBD)-35 (0x23)
    Формат : RLE
    Формат/Информация : Run-length encoding
    Режим смешивания : DVD-Video
    Текст #9
    Идентификатор : 189 (0xBD)-36 (0x24)
    Формат : RLE
    Формат/Информация : Run-length encoding
    Режим смешивания : DVD-Video
    Текст #10
    Идентификатор : 189 (0xBD)-37 (0x25)
    Формат : RLE
    Формат/Информация : Run-length encoding
    Режим смешивания : DVD-Video
    Текст #11
    Идентификатор : 189 (0xBD)-38 (0x26)
    Формат : RLE
    Формат/Информация : Run-length encoding
    Режим смешивания : DVD-Video
    Текст #12
    Идентификатор : 189 (0xBD)-39 (0x27)
    Формат : RLE
    Формат/Информация : Run-length encoding
    Режим смешивания : DVD-Video
    Текст #13
    Идентификатор : 189 (0xBD)-40 (0x28)
    Формат : RLE
    Формат/Информация : Run-length encoding
    Режим смешивания : DVD-Video
    Текст #14
    Идентификатор : 189 (0xBD)-41 (0x29)
    Формат : RLE
    Формат/Информация : Run-length encoding
    Режим смешивания : DVD-Video
    Меню
    Скриншоты


    Залил: carisha

    Онлайн видео Питер Пэн


    Размер скачиваемого торрента: 11.24 GB (12070445056 Bytes)

    Питер Пэн/Peter Pan (1953) DVD9+DVD5 | D | Коллекционное издание
    Рейтинг →
     (голосов: 1, оценка 3/5, голосовать можно 1 раз )

    Другие торренты по теме:

  • Питер Пэн / Питер Пэн 2: Возвращение в Нетландию / Peter Pan / Return to Never Land / Дилогия / Dilogy (1953-2002) BDRip 1080p от Youtracker
  • OST - Питер Пэн / Peter Pan (2003) MP3
  • Барри Джеймс - Питер Пэн и Венди (2011) MP3
  • Питер Пэн: Возвращение в Нетландию / Return to Never Land (2002) BDRip 720p от Leonardo and Scarabey | Лицензия скачать через торрент бесплатно
  • Питер Пэн / Peter Pan (1953) BDRip 720p от Leonardo and Scarabey | Лицензия скачать через торрент бесплатно
  • Питер Пэн / Peter Pan (1953) BDRip 1080p от R.G. HD-Films | 60 fps
  • Питер Пэн / Peter Pan (2003) HDRip от Scarabey | D скачать через торрент бесплатно
  • Питер Пэн (2015)


    • Комментарии (0):

      Информация

      Информация

        Посетители, находящиеся в группе Гости, не могут оставлять комментарии в данной новости.

        ↓ Меню




        ↓ Опрос

        А Вы добавили сайт в закладки?
        Да
        Не


        Top 10 за месяц (Мультфильмы)