.
Авторизация | Регистрация
Хочешь лучшие торренты? Добавь свой email!
Добавить
  • support: webmaster@servmix.org
» » Легенда Араты / Arata Kangatari (2013) HDTVRip | Persona99 скачать торрент бесплатно


    Легенда Араты / Arata Kangatari (2013) HDTVRip | Persona99 скачать торрент бесплатно

    Опубликовал: fregat | Дата: 27-02-2015, 11:09 | .torrent скачали: 286

    Легенда Араты / Arata Kangatari  (2013) HDTVRip | Persona99

    Страна: Япония
    Год выпуска: 2013 г.
    Жанр: приключения, фэнтези
    Тип: TV
    Продолжительность: 12 эп, ~25 мин. серия
    Режиссер: Ясуда Кэндзи
    Студия: Satelight

    Озвучка:
    (Любительский одноголосый закадровый) Persona99
    техподдержка: goodwing

    Описание:
    Действие сериала разворачивается в параллельной вселенной, где боги и люди живут бок о бок. Здесь, каждые тридцать лет из числа членов матриархального клана Химе выбирают новую принцессу, дабы служить Хаягами. И вот в очередной раз срок подошёл, а выбрать-то и не из кого: из всех членов клана более-менее подходит только Арата, пятнадцати лет отроду. Но есть небольшая проблема: Арата – парень. Впрочем, такие мелочи никого не волнуют: героя переодевают в женское платье и заставляют изображать из себя кандидатку, по крайней мере, до тех пор, пока не отыщется кто-нибудь более подходящий. В этом качестве Арата посещает праздник, где становится свидетелем убийства нынешней принцессы Кокури воинами её собственной личной стражи. Более того, убийство вешают на убегающего в ужасе парня, и теперь вся страна охотится за ним одним. Каким-то образом Арата оказывается в нашем мире, само собой, в современной Японии, а тем временем, обычного японского школьника по имени Арата Хинохара затягивает в параллельный мир, где он очень быстро обнаруживает, что количество людей, желающих ему смерти, значительно превышает приемлемое значение.

    Доп. информация:

    Релиз GSGroup

    Справка:
    Совместный японско-корейский проект. Предварительный показ первого эпизода - 23.03.2013.

    Качество: HDTVRip
    Тип релиза: Без хардсаба
    Формат видео: AVI
    Видео: 704x396, 23.976 fps, XviD ~ 1324 Kbps
    Аудио 1: Русская / 2 ch / AC-3 / 48 kHz / 192 Kbps озвучка: (Любительский одноголосый) Persona99
    Аудио 2: Японская / 2 ch / AC-3 / 48 kHz / 192 Kbps
    Субтитры: *srt, *ass Язык субтитров русский Перевод:Nero08, LeoDreaM. Редактирование:LeoDreaM and Гирра. Оформление,лирика , тайминг: LeoDreaM
    Подробные тех. данные

    Общее
    Полное имя : Arata KangatariArata Kangatari 01.avi
    Формат : AVI
    Формат/Информация : Audio Video Interleave
    Размер файла : 299 Мбайт
    Продолжительность : 24 м.
    Общий поток : 1722 Кбит/сек
    Программа кодирования : VirtualDubModRus 1.5.10.2 (build 2542/release)
    Библиотека кодирования : VirtualDubMod build 2542/release

    Видео
    Идентификатор : 0
    Формат : MPEG-4 Visual
    Профиль формата : Advanced Simple@L5
    Параметр BVOP формата : 2
    Параметр QPel формата : Нет
    Параметр GMC формата : Без точки перехода
    Параметр матрицы формата : Default (H.263)
    Идентификатор кодека : XVID
    Идентификатор кодека/Подсказка : XviD
    Продолжительность : 24 м.
    Битрейт : 1324 Кбит/сек
    Ширина : 704 пикселя
    Высота : 396 пикселей
    Соотношение сторон : 16:9
    Частота кадров : 23,976 кадра/сек
    Цветовое пространство : YUV
    Субдискретизация насыщенности : 4:2:0
    Битовая глубина : 8 бит
    Тип развёртки : Прогрессивная
    Метод сжатия : С потерями
    Бит/(Пиксели*Кадры) : 0.198
    Размер потока : 230 Мбайт (77%)
    Библиотека кодирования : XviD 64

    Аудио #1
    Идентификатор : 1
    Формат : AC-3
    Формат/Информация : Audio Coding 3
    Расширение режима : CM (complete main)
    Параметр Endianness формата : Big
    Идентификатор кодека : 2000
    Продолжительность : 24 м.
    Вид битрейта : Постоянный
    Битрейт : 192 Кбит/сек
    Каналы : 2 канала
    Расположение каналов : Front: L R
    Частота : 48,0 КГц
    Битовая глубина : 16 бит
    Метод сжатия : С потерями
    Размер потока : 33,3 Мбайт (11%)
    Выравнивание : Разделение по промежуткам
    Продолжительность промежутка : 42 мс. (1,00 видеокадр)
    Время предзагрузки промежутка : 500 мс.
    Заголовок : Persona99

    Аудио #2
    Идентификатор : 2
    Формат : AC-3
    Формат/Информация : Audio Coding 3
    Расширение режима : CM (complete main)
    Параметр Endianness формата : Big
    Идентификатор кодека : 2000
    Продолжительность : 24 м.
    Вид битрейта : Постоянный
    Битрейт : 192 Кбит/сек
    Каналы : 2 канала
    Расположение каналов : Front: L R
    Частота : 48,0 КГц
    Битовая глубина : 16 бит
    Метод сжатия : С потерями
    Размер потока : 33,3 Мбайт (11%)
    Выравнивание : Разделение по промежуткам
    Продолжительность промежутка : 42 мс. (1,00 видеокадр)
    Время предзагрузки промежутка : 500 мс.
    Заголовок : Japanese

    Список эпизодов
    01. Жизнь Араты.
    02. Хаягами
    03. Наказание
    04. Пробуждение
    05. Зокушоу
    06. Окоро
    07. Хомура
    08. Орочи
    09. Демонизация
    10. Стремление
    11. Жизненная Сила
    12. Свет Созидания
    Скриншоты


    Семпл: http://sendfile.su/794504

    Залил: evilboots
    Размер: 3.77 GB (4048377134 Bytes)
    Рейтинг →
     (голосов: 1, оценка 5/5, голосовать можно 1 раз )

    Другие торренты по теме:

  • Легенда Араты / Arata Kangatari (2013) HDTVRip | Persona99


    • Комментарии (0):

      Информация

      Информация

        Посетители, находящиеся в группе Гости, не могут оставлять комментарии в данной новости.

        ↓ Меню




        ↓ Опрос

        А Вы добавили сайт в закладки?
        Да
        Не


        Top 10 за месяц (Мультфильмы)