.
Авторизация | Регистрация
Хочешь лучшие торренты? Добавь свой email!
Добавить
  • support: webmaster@servmix.org


Кукутики (2015–2017) WEBRip 1080р скачать торрент бесплатно

Опубликовал: fregat | Дата: 27-07-2018, 11:00 | .torrent скачали: 30


Кукутики (2015–2017) WEBRip 1080р
Кукутики
Снималось в: Россия
Создали в: 2015–2017
Категория жанра: мультфильм, детский
Время просмотра: 84х ~00: 05: 00
Главный режиссеры: Рустам Салахов, Артур Днепровский
Автор сценария: Артур Днепровский, Рустам Салахов
Описание: Развивающий мультсериал для самых маленьких, который поможет деткам быстрее усвоить слова и движения. Пойте и танцуйте вместе с кукутиками! Пятеро кукутиков – Мышонок, Поросенок, Енот, Девочка и Мальчик – одна команда. Вместе они проводят настоящее развлекательное шоу, в котором снимают музыкальные клипы. Присоединиться к съемкам могут и маленькие зрители. Участники шоу поют забавные детские песенки, помогают детям разучить их слова, а также учат танцевать в такт мелодии. Кроме того, их песенки расскажут детям о полезных вещах: как дружелюбно здороваться, как правильно попросить прощения и так далее. Танцуя вместе с кукутиками, дети разучат новые движения и научатся придумывать свои...

Перевод текста: не требуется (оригинал)
Субтитры: нет
Качество фильма: WEBRip 1080р
Тип видео: МР4
Информация о видео кодек: AVC
Информация о звуке кодек: ААС
Информация о видео: 1920x1080 (16: 9), 25.000 fps, MPEG-4 AVC ~1 200 kbps avg
Информация о звуке: 44.1 kHz, Advanced Audio Codec LC, 2/0 (L, R) ch, ~126 kbps

Media Info
General
Полное имя : 076. КУКУТИКИ - Зоопарк (новая версия).mp4
Формат : MPEG-4
Профиль формата : Base Media
Идентификатор кодека : isom (isom/iso2/avc1/mp41)
Размер файла : 48, 2 Мбайт
Продолжительность : 4 м. 52 с.
Общий поток : 1380 Кбит/сек
Программа кодирования : Lavf56.40.101
Идентификатор : 1
Формат : AVC
Формат/Информация : Advanced Video Codec
Профиль формата : High@L4
Настройки формата : CABAC/3 Ref Frames
Параметр CABAC формата : Да
Параметр RefFrames формата : 3 кадра
Идентификатор кодека : avc1
Идентификатор кодека/Информация : Advanced Video Coding
Продолжительность : 4 м. 52 с.
Duration_FirstFrame : -40 мс.
Битрейт : 1248 Кбит/сек
Ширина : 1920 пикселей
Высота : 1080 пикселей
Соотношение сторон : 16: 9
Режим частоты кадров : Переменный
Частота кадров : 25, 000 кадров/сек
Минимальная частота кадров : 25, 000 кадров/сек
Максимальная частота кадров : 25, 014 кадров/сек
Цветовое пространство : YUV
Субдискретизация насыщенности : 4: 2: 0
Битовая глубина : 8 бит
Тип развёртки : Прогрессивная
Бит/(Пиксели*Кадры) : 0.024
Размер потока : 43, 6 Мбайт (90%)
Цветовой диапазон : Limited
Основные цвета : BT.709
Характеристики трансфера : BT.709
Коэффициенты матрицы : BT.709
Идентификатор : 2
Формат : AAC
Формат/Информация : Advanced Audio Codec
Профиль формата : LC
Идентификатор кодека : mp4a-40-2
Продолжительность : 4 м. 52 с.
Вид битрейта : Постоянный
Битрейт : 126 Кбит/сек
Каналы : 2 канала
Расположение каналов : Front: L R
Частота : 44, 1 КГц
Частота кадров : 43, 066 кадра/сек (1024 SPF)
Метод сжатия : С потерями
Размер потока : 4, 38 Мбайт (9%)
Default : Да
Скриншоты

Залил: Zha-4k-e

Онлайн видео Аванпост


Размер скачиваемого торрента: 4.68 GB (5020136808 Bytes)

Кукутики (2015–2017) WEBRip 1080р
Рейтинг →
 (голосов: 1, оценка 3/5, голосовать можно 1 раз )

Другие торренты по теме:

  • Кукутики (2016) WEB-DLRip от ImperiaFilm


    • Комментарии (0):

      Информация

      Информация

        Посетители, находящиеся в группе Гости, не могут оставлять комментарии в данной новости.

        ↓ Меню




        ↓ Опрос

        А Вы добавили сайт в закладки?
        Да
        Не


        Top 10 за месяц (Мультфильмы)