.
Авторизация | Регистрация
Хочешь лучшие торренты? Добавь свой email!
Добавить
  • support: webmaster@servmix.org
» » Компания Первая любовь / First Love Limited (2009) HDTVRip-AVC скачать торрент бесплатно


    Компания Первая любовь / First Love Limited (2009) HDTVRip-AVC скачать торрент бесплатно

    Опубликовал: Админ | Дата: 27-02-2015, 11:09 | .torrent скачали: 391


    Компания Первая любовь / First Love Limited (2009) HDTVRip-AVC

    Информация о фильме
    Название: Компания Первая любовь
    Оригинальное название: First Love Limited
    Год выхода: 2009
    Жанр: комедия, романтика, школа
    Режиссер: Ямакава Ёсики
    В ролях: Аюми, Кэй, Коёй, Рика и Нао

    О фильме:
    Какой основной вопрос волнует юношей и девушек, вступающих в заветную весну жизни? Уж точно не спасение редких горных кошек… а, конечно же, любовь! Именно о ней, о первой любви, о ее поисках и непростых загадках рассказывает этот романтический ситком, вращающийся вокруг двух десятков учениц и учеников средней и старшей школы, связанных дружескими, родственными и романтическими отношениями.

    Стоит ли девушке ждать принца на белом коне? Обманчива ли внешность? Зла ли любовь? Какие характеры лучше для долгих отношений – схожие или противоположные? Ответы на эти и другие вопросы будут искать 14-летние подружки Аюми, Кэй, Коёй, Рика и Нао, которые составляют организационное ядро персонажей сериала. Как следует из законов жанра, каждая серия будет рассказывать отдельную историю и нанизываться на отдельный сквозной метасюжет.


    Страна: Япония
    Продолжительность: 12 серий по 23 мин 6 сплешов по 3-5 мин.
    Перевод: Любительский, многоголосый

    Файл
    Кодек: mp4
    Качество: HDTVRip
    Видео: 1708 Кбит/сек, 1280х720, 23,976 кадра/секп, AVC (High@L3.1)
    Звук: Russian, Stereo 128 Кбит/сек, 44.1КГц, AAC (LC)
    Субтитры: нету

    MediaInfo: 1 - сплэш - Limited Girl 1 - 720p


    Общее
    Полное имя : F:Компания Первая любовь First Love Limited TV 1-12Спэшлы 6 из 61 - сплэш - Limited Girl 1 - 720p.mp4
    Формат : MPEG-4
    Профиль формата : Base Media
    Идентификатор кодека : isom
    Размер файла : 49,8 Мбайт
    Продолжительность : 4 м. 11 с.
    Режим общего битрейта : Переменный
    Общий поток : 1663 Кбит/сек
    Программа кодирования : Lavf52.40.0

    Видео
    Идентификатор : 1
    Формат : AVC
    Формат/Информация : Advanced Video Codec
    Профиль формата : High@L3.1
    Параметр CABAC формата : Да
    Параметр ReFrames формата : 3 кадра
    Идентификатор кодека : avc1
    Идентификатор кодека/Информация : Advanced Video Coding
    Продолжительность : 4 м. 11 с.
    Битрейт : 1531 Кбит/сек
    Номинальный битрейт : 1800 Кбит/сек
    Ширина : 1280 пикселей
    Высота : 720 пикселей
    Соотношение сторон : 16:9
    Режим частоты кадров : Переменный
    Частота кадров : 23,976 кадра/сек
    Частота кадров в оригинале : 25,000 кадров/сек
    Минимальная частота кадров : 8,333 кадров/сек
    Максимальная частота кадров : 25,000 кадров/сек
    Цветовое пространство : YUV
    Субдискретизация насыщенности : 4:2:0
    Битовая глубина : 8 бит
    Тип развёртки : Прогрессивная
    Бит/(Пиксели*Кадры) : 0.069
    Размер потока : 45,8 Мбайт (92%)
    Библиотека кодирования : x264 core 79
    Настройки программы : cabac=1 / ref=3 / deblock=1:0:0 / analyse=0x3:0x113 / me=hex / subme=7 / psy=1 / psy_rd=1.0:0.0 / mixed_ref=1 / me_range=16 / chroma_me=1 / trellis=1 / 8x8dct=1 / cqm=0 / deadzone=21,11 / chroma_qp_offset=-2 / threads=24 / nr=0 / decimate=1 / mbaff=0 / constrained_intra=0 / bframes=3 / b_pyramid=0 / b_adapt=1 / b_bias=0 / direct=1 / wpredb=32 / wpredp=2 / keyint=250 / keyint_min=25 / scenecut=40 / rc_lookahead=40 / rc=abr / mbtree=1 / bitrate=1800 / ratetol=2.2 / qcomp=0.60 / qpmin=10 / qpmax=51 / qpstep=4 / ip_ratio=1.41 / aq=1:1.00

    Аудио
    Идентификатор : 2
    Формат : AAC
    Формат/Информация : Advanced Audio Codec
    Профиль формата : LC
    Идентификатор кодека : 40
    Продолжительность : 4 м. 11 с.
    Вид битрейта : Переменный
    Битрейт : 128 Кбит/сек
    Каналы : 2 канала
    Расположение каналов : Front: L R
    Частота : 44,1 КГц
    Метод сжатия : С потерями
    Задержка видео : -3 мс.
    Размер потока : 3,83 Мбайт (8%)
    Язык : Russian


    MediaInfo: 2 - сплеш - Limited Girl 2 - 720p


    Общее
    Полное имя : F:Компания Первая любовь First Love Limited TV 1-12Спэшлы 6 из 62 - сплеш - Limited Girl 2 - 720p.mp4
    Формат : MPEG-4
    Профиль формата : Base Media
    Идентификатор кодека : isom
    Размер файла : 61,0 Мбайт
    Продолжительность : 5 м. 6 с.
    Режим общего битрейта : Переменный
    Общий поток : 1668 Кбит/сек
    Программа кодирования : Lavf52.40.0

    Видео
    Идентификатор : 1
    Формат : AVC
    Формат/Информация : Advanced Video Codec
    Профиль формата : High@L3.1
    Параметр CABAC формата : Да
    Параметр ReFrames формата : 3 кадра
    Идентификатор кодека : avc1
    Идентификатор кодека/Информация : Advanced Video Coding
    Продолжительность : 5 м. 6 с.
    Битрейт : 1535 Кбит/сек
    Номинальный битрейт : 1800 Кбит/сек
    Ширина : 1280 пикселей
    Высота : 720 пикселей
    Соотношение сторон : 16:9
    Режим частоты кадров : Переменный
    Частота кадров : 23,976 кадра/сек
    Частота кадров в оригинале : 25,000 кадров/сек
    Минимальная частота кадров : 8,333 кадров/сек
    Максимальная частота кадров : 25,000 кадров/сек
    Цветовое пространство : YUV
    Субдискретизация насыщенности : 4:2:0
    Битовая глубина : 8 бит
    Тип развёртки : Прогрессивная
    Бит/(Пиксели*Кадры) : 0.069
    Размер потока : 56,1 Мбайт (92%)
    Библиотека кодирования : x264 core 79
    Настройки программы : cabac=1 / ref=3 / deblock=1:0:0 / analyse=0x3:0x113 / me=hex / subme=7 / psy=1 / psy_rd=1.0:0.0 / mixed_ref=1 / me_range=16 / chroma_me=1 / trellis=1 / 8x8dct=1 / cqm=0 / deadzone=21,11 / chroma_qp_offset=-2 / threads=24 / nr=0 / decimate=1 / mbaff=0 / constrained_intra=0 / bframes=3 / b_pyramid=0 / b_adapt=1 / b_bias=0 / direct=1 / wpredb=32 / wpredp=2 / keyint=250 / keyint_min=25 / scenecut=40 / rc_lookahead=40 / rc=abr / mbtree=1 / bitrate=1800 / ratetol=2.2 / qcomp=0.60 / qpmin=10 / qpmax=51 / qpstep=4 / ip_ratio=1.41 / aq=1:1.00

    Аудио
    Идентификатор : 2
    Формат : AAC
    Формат/Информация : Advanced Audio Codec
    Профиль формата : LC
    Идентификатор кодека : 40
    Продолжительность : 5 м. 6 с.
    Вид битрейта : Переменный
    Битрейт : 128 Кбит/сек
    Каналы : 2 канала
    Расположение каналов : Front: L R
    Частота : 44,1 КГц
    Метод сжатия : С потерями
    Задержка видео : -3 мс.
    Размер потока : 4,68 Мбайт (8%)
    Язык : Russian


    MediaInfo: 3 - сплеш - Limited Girl 3 - 720p


    Общее
    Полное имя : F:Компания Первая любовь First Love Limited TV 1-12Спэшлы 6 из 63 - сплеш - Limited Girl 3 - 720p.mp4
    Формат : MPEG-4
    Профиль формата : Base Media
    Идентификатор кодека : isom
    Размер файла : 45,0 Мбайт
    Продолжительность : 3 м. 53 с.
    Режим общего битрейта : Переменный
    Общий поток : 1616 Кбит/сек
    Программа кодирования : Lavf52.40.0

    Видео
    Идентификатор : 1
    Формат : AVC
    Формат/Информация : Advanced Video Codec
    Профиль формата : High@L3.1
    Параметр CABAC формата : Да
    Параметр ReFrames формата : 3 кадра
    Идентификатор кодека : avc1
    Идентификатор кодека/Информация : Advanced Video Coding
    Продолжительность : 3 м. 53 с.
    Битрейт : 1484 Кбит/сек
    Номинальный битрейт : 1800 Кбит/сек
    Ширина : 1280 пикселей
    Высота : 720 пикселей
    Соотношение сторон : 16:9
    Режим частоты кадров : Переменный
    Частота кадров : 23,976 кадра/сек
    Частота кадров в оригинале : 25,000 кадров/сек
    Минимальная частота кадров : 8,333 кадров/сек
    Максимальная частота кадров : 25,000 кадров/сек
    Цветовое пространство : YUV
    Субдискретизация насыщенности : 4:2:0
    Битовая глубина : 8 бит
    Тип развёртки : Прогрессивная
    Бит/(Пиксели*Кадры) : 0.067
    Размер потока : 41,2 Мбайт (92%)
    Библиотека кодирования : x264 core 79
    Настройки программы : cabac=1 / ref=3 / deblock=1:0:0 / analyse=0x3:0x113 / me=hex / subme=7 / psy=1 / psy_rd=1.0:0.0 / mixed_ref=1 / me_range=16 / chroma_me=1 / trellis=1 / 8x8dct=1 / cqm=0 / deadzone=21,11 / chroma_qp_offset=-2 / threads=24 / nr=0 / decimate=1 / mbaff=0 / constrained_intra=0 / bframes=3 / b_pyramid=0 / b_adapt=1 / b_bias=0 / direct=1 / wpredb=32 / wpredp=2 / keyint=250 / keyint_min=25 / scenecut=40 / rc_lookahead=40 / rc=abr / mbtree=1 / bitrate=1800 / ratetol=2.2 / qcomp=0.60 / qpmin=10 / qpmax=51 / qpstep=4 / ip_ratio=1.41 / aq=1:1.00

    Аудио
    Идентификатор : 2
    Формат : AAC
    Формат/Информация : Advanced Audio Codec
    Профиль формата : LC
    Идентификатор кодека : 40
    Продолжительность : 3 м. 53 с.
    Вид битрейта : Переменный
    Битрейт : 128 Кбит/сек
    Каналы : 2 канала
    Расположение каналов : Front: L R
    Частота : 44,1 КГц
    Метод сжатия : С потерями
    Задержка видео : -3 мс.
    Размер потока : 3,56 Мбайт (8%)
    Язык : Russian


    MediaInfo: 4 - сплеш - Limited Girl 4 - 720p


    Общее
    Полное имя : F:Компания Первая любовь First Love Limited TV 1-12Спэшлы 6 из 64 - сплеш - Limited Girl 4 - 720p.mp4
    Формат : MPEG-4
    Профиль формата : Base Media
    Идентификатор кодека : isom
    Размер файла : 48,4 Мбайт
    Продолжительность : 4 м. 0 с.
    Режим общего битрейта : Переменный
    Общий поток : 1690 Кбит/сек
    Программа кодирования : Lavf52.40.0

    Видео
    Идентификатор : 1
    Формат : AVC
    Формат/Информация : Advanced Video Codec
    Профиль формата : High@L3.1
    Параметр CABAC формата : Да
    Параметр ReFrames формата : 3 кадра
    Идентификатор кодека : avc1
    Идентификатор кодека/Информация : Advanced Video Coding
    Продолжительность : 4 м. 0 с.
    Битрейт : 1558 Кбит/сек
    Номинальный битрейт : 1800 Кбит/сек
    Ширина : 1280 пикселей
    Высота : 720 пикселей
    Соотношение сторон : 16:9
    Режим частоты кадров : Переменный
    Частота кадров : 23,976 кадра/сек
    Частота кадров в оригинале : 25,000 кадров/сек
    Минимальная частота кадров : 8,333 кадров/сек
    Максимальная частота кадров : 25,000 кадров/сек
    Цветовое пространство : YUV
    Субдискретизация насыщенности : 4:2:0
    Битовая глубина : 8 бит
    Тип развёртки : Прогрессивная
    Бит/(Пиксели*Кадры) : 0.071
    Размер потока : 44,6 Мбайт (92%)
    Библиотека кодирования : x264 core 79
    Настройки программы : cabac=1 / ref=3 / deblock=1:0:0 / analyse=0x3:0x113 / me=hex / subme=7 / psy=1 / psy_rd=1.0:0.0 / mixed_ref=1 / me_range=16 / chroma_me=1 / trellis=1 / 8x8dct=1 / cqm=0 / deadzone=21,11 / chroma_qp_offset=-2 / threads=24 / nr=0 / decimate=1 / mbaff=0 / constrained_intra=0 / bframes=3 / b_pyramid=0 / b_adapt=1 / b_bias=0 / direct=1 / wpredb=32 / wpredp=2 / keyint=250 / keyint_min=25 / scenecut=40 / rc_lookahead=40 / rc=abr / mbtree=1 / bitrate=1800 / ratetol=2.2 / qcomp=0.60 / qpmin=10 / qpmax=51 / qpstep=4 / ip_ratio=1.41 / aq=1:1.00

    Аудио
    Идентификатор : 2
    Формат : AAC
    Формат/Информация : Advanced Audio Codec
    Профиль формата : LC
    Идентификатор кодека : 40
    Продолжительность : 4 м. 0 с.
    Вид битрейта : Переменный
    Битрейт : 128 Кбит/сек
    Каналы : 2 канала
    Расположение каналов : Front: L R
    Частота : 44,1 КГц
    Метод сжатия : С потерями
    Задержка видео : -3 мс.
    Размер потока : 3,66 Мбайт (8%)
    Язык : Russian


    MediaInfo: 5 - сплеш - Limited Girl 5 - 720p


    Общее
    Полное имя : F:Компания Первая любовь First Love Limited TV 1-12Спэшлы 6 из 65 - сплеш - Limited Girl 5 - 720p.mp4
    Формат : MPEG-4
    Профиль формата : Base Media
    Идентификатор кодека : isom
    Размер файла : 53,6 Мбайт
    Продолжительность : 4 м. 27 с.
    Режим общего битрейта : Переменный
    Общий поток : 1683 Кбит/сек
    Программа кодирования : Lavf52.40.0

    Видео
    Идентификатор : 1
    Формат : AVC
    Формат/Информация : Advanced Video Codec
    Профиль формата : High@L3.1
    Параметр CABAC формата : Да
    Параметр ReFrames формата : 3 кадра
    Идентификатор кодека : avc1
    Идентификатор кодека/Информация : Advanced Video Coding
    Продолжительность : 4 м. 27 с.
    Битрейт : 1551 Кбит/сек
    Номинальный битрейт : 1800 Кбит/сек
    Ширина : 1280 пикселей
    Высота : 720 пикселей
    Соотношение сторон : 16:9
    Режим частоты кадров : Переменный
    Частота кадров : 23,976 кадра/сек
    Частота кадров в оригинале : 25,000 кадров/сек
    Минимальная частота кадров : 8,333 кадров/сек
    Максимальная частота кадров : 25,000 кадров/сек
    Цветовое пространство : YUV
    Субдискретизация насыщенности : 4:2:0
    Битовая глубина : 8 бит
    Тип развёртки : Прогрессивная
    Бит/(Пиксели*Кадры) : 0.070
    Размер потока : 49,4 Мбайт (92%)
    Библиотека кодирования : x264 core 79
    Настройки программы : cabac=1 / ref=3 / deblock=1:0:0 / analyse=0x3:0x113 / me=hex / subme=7 / psy=1 / psy_rd=1.0:0.0 / mixed_ref=1 / me_range=16 / chroma_me=1 / trellis=1 / 8x8dct=1 / cqm=0 / deadzone=21,11 / chroma_qp_offset=-2 / threads=24 / nr=0 / decimate=1 / mbaff=0 / constrained_intra=0 / bframes=3 / b_pyramid=0 / b_adapt=1 / b_bias=0 / direct=1 / wpredb=32 / wpredp=2 / keyint=250 / keyint_min=25 / scenecut=40 / rc_lookahead=40 / rc=abr / mbtree=1 / bitrate=1800 / ratetol=2.2 / qcomp=0.60 / qpmin=10 / qpmax=51 / qpstep=4 / ip_ratio=1.41 / aq=1:1.00

    Аудио
    Идентификатор : 2
    Формат : AAC
    Формат/Информация : Advanced Audio Codec
    Профиль формата : LC
    Идентификатор кодека : 40
    Продолжительность : 4 м. 27 с.
    Вид битрейта : Переменный
    Битрейт : 128 Кбит/сек
    Каналы : 2 канала
    Расположение каналов : Front: L R
    Частота : 44,1 КГц
    Метод сжатия : С потерями
    Задержка видео : -3 мс.
    Размер потока : 4,08 Мбайт (8%)
    Язык : Russian


    MediaInfo: 6 - сплеш - Limited Girl 6 - 720p


    Общее
    Полное имя : F:Компания Первая любовь First Love Limited TV 1-12Спэшлы 6 из 66 - сплеш - Limited Girl 6 - 720p.mp4
    Формат : MPEG-4
    Профиль формата : Base Media
    Идентификатор кодека : isom
    Размер файла : 60,0 Мбайт
    Продолжительность : 4 м. 51 с.
    Режим общего битрейта : Переменный
    Общий поток : 1727 Кбит/сек
    Программа кодирования : Lavf52.40.0

    Видео
    Идентификатор : 1
    Формат : AVC
    Формат/Информация : Advanced Video Codec
    Профиль формата : High@L3.1
    Параметр CABAC формата : Да
    Параметр ReFrames формата : 3 кадра
    Идентификатор кодека : avc1
    Идентификатор кодека/Информация : Advanced Video Coding
    Продолжительность : 4 м. 51 с.
    Битрейт : 1595 Кбит/сек
    Номинальный битрейт : 1800 Кбит/сек
    Ширина : 1280 пикселей
    Высота : 720 пикселей
    Соотношение сторон : 16:9
    Режим частоты кадров : Переменный
    Частота кадров : 23,976 кадра/сек
    Частота кадров в оригинале : 25,000 кадров/сек
    Минимальная частота кадров : 8,333 кадров/сек
    Максимальная частота кадров : 25,000 кадров/сек
    Цветовое пространство : YUV
    Субдискретизация насыщенности : 4:2:0
    Битовая глубина : 8 бит
    Тип развёртки : Прогрессивная
    Бит/(Пиксели*Кадры) : 0.072
    Размер потока : 55,4 Мбайт (92%)
    Библиотека кодирования : x264 core 79
    Настройки программы : cabac=1 / ref=3 / deblock=1:0:0 / analyse=0x3:0x113 / me=hex / subme=7 / psy=1 / psy_rd=1.0:0.0 / mixed_ref=1 / me_range=16 / chroma_me=1 / trellis=1 / 8x8dct=1 / cqm=0 / deadzone=21,11 / chroma_qp_offset=-2 / threads=24 / nr=0 / decimate=1 / mbaff=0 / constrained_intra=0 / bframes=3 / b_pyramid=0 / b_adapt=1 / b_bias=0 / direct=1 / wpredb=32 / wpredp=2 / keyint=250 / keyint_min=25 / scenecut=40 / rc_lookahead=40 / rc=abr / mbtree=1 / bitrate=1800 / ratetol=2.2 / qcomp=0.60 / qpmin=10 / qpmax=51 / qpstep=4 / ip_ratio=1.41 / aq=1:1.00

    Аудио
    Идентификатор : 2
    Формат : AAC
    Формат/Информация : Advanced Audio Codec
    Профиль формата : LC
    Идентификатор кодека : 40
    Продолжительность : 4 м. 51 с.
    Вид битрейта : Переменный
    Битрейт : 128 Кбит/сек
    Каналы : 2 канала
    Расположение каналов : Front: L R
    Частота : 44,1 КГц
    Метод сжатия : С потерями
    Задержка видео : -3 мс.
    Размер потока : 4,44 Мбайт (7%)
    Язык : Russian



    Скриншоты





    Скриншоты:Спэшлы




    Размер: 3.78 GB (4054843811 Bytes)
    Рейтинг →
     (голосов: 1, оценка 4/5, голосовать можно 1 раз )

    Другие торренты по теме:

  • Плохая компания / Bad Company (2001) HDTV 1080i
  • Грязная компания за честные выборы / The Campaign (2012) DVD5 от Youtracker | P | сжатый
  • Опасная компания / Les dangereux (2002) DVDRip от Киномагия l P2
  • Компания Хьюго / Hugo Pool (1997) DVDRip от vittrack
  • К-9 и Компания / K-9 and Company (1981) VHSRip | L1
  • Оливер и компания / Oliver Company (1988) BDRip-AVC от HELLYWOOD
  • Зи и компания / Zee and Co (1972) DVDRip-AVC от -=HD-NET=- | L1
  • Оливер и компания / Oliver Company (1988) BDRip от HQCLUB


    • Комментарии (0):

      Информация

      Информация

        Посетители, находящиеся в группе Гости, не могут оставлять комментарии в данной новости.

        ↓ Меню




        ↓ Опрос

        А Вы добавили сайт в закладки?
        Да
        Не


        Top 10 за месяц (Мультфильмы)

        Ловушка для кошек / Macskafogo (1986) DVDRip-AVC от ExKinoRay | D

        (скачиваний: 7)
        Naruto Фильмы / Naruto Movies (2003-2012) BDRip | SHIZA Project

        (скачиваний: 6)
        Русалочка: Начало истории Ариэль / The Little Mermaid: Ariels Beginning (2008) BDRip от HQCLUB
        Русалочка: Начало истории Ариэль / The Little Mermaid: Ariel;s Beginning (2008) BDRip от HQCLUB
        (скачиваний: 5)
        Рататуй / Ratatouille (2007) BD-Remux 1080p | 3D-Video скачать через торрент бесплатно
        Рататуй/Ratatouille
        (скачиваний: 5)
        Братец медвежонок 2: Лоси в бегах / Brother Bear 2 (2006) BDRemux 1080p от HDTracker

        (скачиваний: 5)
        Братец медвежонок 2 / Brother Bear 2 (2006)
        Братец медвежонок 2 / Brother Bear 2 (2006)
        (скачиваний: 4)
        Сад изящных слов / Сад слов / Kotonoha no Niwa / The Garden of Words (2013) BDRip-720p | D скачать через торрент бесплатно

        (скачиваний: 4)
        Похождения императора. Дилогия / The Emperors New Groove. Kronks New Groove (2000, 2005) BDRip от RG Jolly Roger
        Похождения императора. Дилогия / The Emperor;s New Groove. Kronk;s New Groove (2000, 2005) BDRip от RG Jolly Roger
        (скачиваний: 4)
        Питер Пэн / Peter Pan (1953) BDRip 1080p от R.G. HD-Films | 60 fps

        (скачиваний: 4)
        Рататуй / Ratatouille (2007) BDRip-AVC от New-Team | D скачать через торрент бесплатно

        (скачиваний: 4)