.
Авторизация | Регистрация
Хочешь лучшие торренты? Добавь свой email!
Добавить
  • support: webmaster@servmix.org
» » Обитель зла: Вендетта / Resident Evil: Vendetta (2017) BDRip от R.G.Resident | iTunes скачать торрент бесплатно


    Обитель зла: Вендетта / Resident Evil: Vendetta (2017) BDRip от R.G.Resident | iTunes скачать торрент бесплатно

    Опубликовал: Админ | Дата: 5-07-2017, 11:01 | .torrent скачали: 0


    Обитель зла: Вендетта / Resident Evil: Vendetta (2017) BDRip от R.G.Resident | iTunes
    Детально о кино
    Русское название: Обитель зла: Вендетта
    Русское название в мировом прокате: Resident Evil: Vendetta
    Создали в: 2017
    Снималось в: Япония
    Категория жанра: мультфильм, ужасы, фантастика, боевик, детектив, приключения
    Перевод текста: Дубляж - iTunes
    Субтитры: Русские (полные, внешние)
    Время просмотра: 01: 37: 14
    Главный режиссер: Таканори Цудзимото

    Актеры
    Кевин Дорман(Chris Redfield, озвучка) , Мэттью Мерсер(Leon S. Kennedy, озвучка) , Эрин Кехилл(Rebecca Chambers, озвучка) , Кари Уолгрен(Nadia, озвучка) , Ариф С. Кинчен(D.C.) , Арни Пантойя(Damian, озвучка) , Джон ДеМита(Glenn Arias, озвучка) , Кристина Валенсуела(Maria Gomez, озвучка) , Фред Татаскьор(Diego Gomez, озвучка) , Александр Полински(Patricio, озвучка) , Орион Акаба(Soldier, озвучка) , Дэрин Де Пол(Zombie, озвучка)


    Описание фильма

    Сотрудник организации по борьбе с биотерроризмом B.S.A.A. Крис Редфилд проникает в таинственный особняк, который, согласно информации, является базой контрабандистов оружием. В ходе расследования Крис сталкивается с Гленом Ариасом, преступником объявленным в международный розыск, и становится свидетелем странной картины, в результате которой упускает Ариаса.
    Рейтинг:

    MPAA: R- Лицам до 17 лет обязательно присутствие взрослого
    Качество фильма: BDRip |Исх: Resident.Evil.Vendetta.2017.BDREMUX.1080p.ExKinoRay.mkv|
    Тип видео: AVI
    Информация о видео: XviD, 720x400 (16: 9), 2174 kbps, 23, 976 fps, 0, 315 bpp
    Информация о звуке №1: русский/AC3/5.1/48 kHz/384 kbps /
    Информация о звуке №2: английский/AC3/5.1/48 kHz/448 kbps /
    Сэмпл

    Релиз подготовил:

    ОтчетМедиаИнфо

    Общее
    Полное имя : E: Resident.Evil.Vendetta.2017.BDRip.R.G.ResidentResident.Evil.Vendetta.2017.BDRip.R.G.Resident.avi
    Формат : AVI
    Формат/Информация : Audio Video Interleave
    Профиль формата : OpenDML
    Размер файла : 2, 05 Гбайт
    Продолжительность : 1 ч. 37 м.
    Общий поток : 3024 Кбит/сек
    Программа кодирования : VirtualDubModRus 1.5.10.2 (build 2542/release)
    Библиотека кодирования : VirtualDubMod build 2542/release
    Видео
    Идентификатор : 0
    Формат : MPEG-4 Visual
    Профиль формата : Advanced Simple@L5
    Параметр BVOP формата : 2
    Параметр QPel формата : Нет
    Параметр GMC формата : Без точки перехода
    Параметр матрицы формата : Выборочная
    Идентификатор кодека : XVID
    Идентификатор кодека/Подсказка : XviD
    Продолжительность : 1 ч. 37 м.
    Битрейт : 2174 Кбит/сек
    Ширина : 720 пикселей
    Высота : 400 пикселей
    Соотношение сторон : 16: 9
    Частота кадров : 23, 976 (24000/1001) кадра/сек
    Цветовое пространство : YUV
    Субдискретизация насыщенности : 4: 2: 0
    Битовая глубина : 8 бит
    Тип развёртки : Прогрессивная
    Метод сжатия : С потерями
    Бит/(Пиксели*Кадры) : 0.315
    Размер потока : 1, 48 Гбайт (72%)
    Библиотека кодирования : XviD 73
    Аудио #1
    Идентификатор : 1
    Формат : AC-3
    Формат/Информация : Audio Coding 3
    Параметр Endianness формата : Big
    Идентификатор кодека : 2000
    Продолжительность : 1 ч. 37 м.
    Вид битрейта : Постоянный
    Битрейт : 384 Кбит/сек
    Каналы : 6 каналов
    Расположение каналов : Front: L C R, Side: L R, LFE
    Частота : 48, 0 КГц
    Частота кадров : 31, 250 кадров/сек (1536 SPF)
    Битовая глубина : 16 бит
    Метод сжатия : С потерями
    Размер потока : 267 Мбайт (13%)
    Выравнивание : Разделение по промежуткам
    Продолжительность промежутка : 42 мс. (1, 00 видеокадр)
    Время предзагрузки промежутка : 500 мс.
    Аудио #2
    Идентификатор : 2
    Формат : AC-3
    Формат/Информация : Audio Coding 3
    Параметр Endianness формата : Big
    Идентификатор кодека : 2000
    Продолжительность : 1 ч. 37 м.
    Вид битрейта : Постоянный
    Битрейт : 448 Кбит/сек
    Каналы : 6 каналов
    Расположение каналов : Front: L C R, Side: L R, LFE
    Частота : 48, 0 КГц
    Частота кадров : 31, 250 кадров/сек (1536 SPF)
    Битовая глубина : 16 бит
    Метод сжатия : С потерями
    Размер потока : 312 Мбайт (15%)
    Выравнивание : Разделение по промежуткам
    Продолжительность промежутка : 42 мс. (1, 00 видеокадр)
    Время предзагрузки промежутка : 500 мс.
    Скриншоты

    Залил: R.G. Resident

    Онлайн видео Обитель зла: Вендетта


    Размер скачиваемого торрента: 2.05 GB (2205551868 Bytes)

    Обитель зла: Вендетта/Resident Evil: Vendetta (2017) BDRip от R.G.Resident | iTunes
    Рейтинг →
     (голосов: 1, оценка 5/5, голосовать можно 1 раз )

    Другие торренты по теме:

  • Обитель зла: Вендетта / Resident Evil: Vendetta (2017) WEB-DLRip-AVC от ExKinoRay | iTunes
  • Обитель зла: Вендетта / Resident Evil: Vendetta (2017) WEB-DL 1080p от ExKinoRay | iTunes
  • Обитель зла: Вендетта / Resident Evil: Vendetta (2017) BDRip 720p | iTunes
  • Обитель зла: Вендетта / Resident Evil: Vendetta (2017) BDRip 1080p от ExKinoRay | iTunes
  • Обитель зла: Вендетта / Resident Evil: Vendetta (2017) BDRip от R.G.Resident | iTunes
  • Обитель зла: Вендетта / Resident Evil: Vendetta (2017) BDRip-AVC от HELLYWOOD | iTunes
  • Обитель зла: Вендетта / Resident Evil: Vendetta (2017) BDRemux 1080p от ExKinoRay | iTunes
  • Обитель зла: Вендетта / Resident Evil: Vendetta (2017) BDRip 720p от HELLYWOOD | iTunes


    • Комментарии (0):

      Информация

      Информация

        Посетители, находящиеся в группе Гости, не могут оставлять комментарии в данной новости.

        ↓ Меню




        ↓ Опрос

        А Вы добавили сайт в закладки?
        Да
        Не


        Top 10 за месяц (Мультфильмы)