.
Авторизация | Регистрация
Хочешь лучшие торренты? Добавь свой email!
Добавить
  • support: webmaster@servmix.org
» » Летающие звери (2012-2015) WEB-DLRip 720p от ExKinoRay скачать торрент бесплатно


    Летающие звери (2012-2015) WEB-DLRip 720p от ExKinoRay скачать торрент бесплатно

    Опубликовал: fregat | Дата: 12-06-2017, 11:01 | .torrent скачали: 37


    Летающие звери (2012-2015) WEB-DLRip 720p от ExKinoRay
    Детально о кино
    Русское название: Летающие звери
    Создали в: 2012-2015
    Снималось в: Россия, Студия анимации Да, благотворительный фонд AdVita
    Категория жанра: Мультсериал, детский, семейный, приключения, музыкальный
    Время просмотра: 42 x ~ 00: 06: 34
    Язык: Русский
    Главный режиссер: Алексей Горбунов, Владимир Королев, Галина Лютикова, ...

    Сюжет фильма
    Добро пожаловать в Легкую Страну! Здесь живут удивительные звери, которые всегда счастливы, а потому умеют летать!
    Что? В небе летит Легкая Страна. Она совсем небольшая и очень уютная. В этой стране живут звери и люди, которые могут летать, и это понятно — ведь у них есть крылья! Жители Легкой Страны решили здесь поселиться, потому что легко относятся к жизни, любят путешествия и не боятся оторваться от земли.
    Главные герои мультсериала — музыканты, которые играют в ансамбле Дирижабль Оркестра. Слон Прабу, медведь Тэд, пёс Хосе, свинка Софи, кот Мустафа, рыба Темба, лошадь Джейн, заяц Акира, черепаха Че, корова Зоя — вот такая веселая компания. Все они разной национальности, ведь попали сюда из самых разных мест земного шара. Иногда им трудно найти общий язык, но таким языком всегда может быть музыка, а легкий взгляд на жизнь помогает им преодолевать все трудности.
    Содержание
    01. Красный шарик
    02. Привычка
    03. Ничего
    04. Мысли о стирке
    05. Всё хорошо
    06. Буря
    07. Сокровище
    08. Хосе уже не тот
    09. Инструменты
    10. Брикабрак
    11. Это Шекспир
    12. Старый мотивчик
    13. Старый дуб. Ч-1
    14. Старый дуб. Ч-2
    15. Улыбка
    16. Без крыльев
    17. Фа
    18. Крокодил на Луне
    19. Правильно
    20. Музыкальные пираты
    21. Там были олени
    22. Вместе
    23. Девочки
    24. Лёгкий слон
    25. Чужие книги
    26. Путешествия - Затмение (Камбоджа)
    27. Путешествия - Высота (Китай)
    28. Путешествия - Очень скучный человек (Город N)
    29. Путешествия - Бабушка слона (Индия)
    30. Путешествия - Что я люблю (Испания)
    31. Соседи
    32. Путешествия - Забытые вещи путешественников (Швейцария)
    33. Путешествия - Тропы песен (Австралия)
    34. Путешествия - Восхождение (Тибет)
    35. Путешествия - Её зовут Йоко
    36. Путешествия - Разрушитель сердец (Париж)
    37. Путешествия - Ничья (Лондон)
    38. Путешествия - Парк Хосе (Мексика)
    39. Путешествия - Игрушка (Сицилия)
    40. Путешествия - Мой робот (Япония)
    41. Путешествия - Похитители велосипедов (Италия)
    42. Путешествия - Эйяфьядлайёкюдль (Исландия)

    Доп. информация:
    Сэмпл

    Файл
    Тип видео: MP4
    Качество фильма: WEB-DLRip 720p
    Информация о видео: MPEG4-AVC, 1280x720 (16: 9), 25 fps, ~2 396 kbps avg, 0.104bit/pixel
    Информация о звуке: 44, 1 kHz, AАC-LC, 2.0, ~192 kbpsp
    MI

    22. Вместе. HD-merci-.mp4
    Format : MPEG-4
    Format profile : Base Media
    Codec ID : isom (isom/mp42)
    File size : 122 MiB
    Duration : 6 min 34 s
    Overall bit rate mode : Variable
    Overall bit rate : 2 592 kb/s
    Encoded date : UTC 2017-06-09 21: 44: 10
    Tagged date : UTC 2017-06-09 21: 44: 10
    gsst : 0
    gstd : 390048
    gssd : B4A7D6E09HH1403773078236159
    gshh : r9---sn-n8v7lnez.googlevideo.com
    Video
    ID : 1
    Format : AVC
    Format/Info : Advanced Video Codec
    Format profile : High@L3.1
    Format settings, CABAC : Yes
    Format settings, ReFrames : 1 frame
    Codec ID : avc1
    Codec ID/Info : Advanced Video Coding
    Duration : 6 min 34 s
    Source duration : 6 min 34 s
    Bit rate : 2 396 kb/s
    Width : 1 280 pixels
    Height : 720 pixels
    Display aspect ratio : 16: 9
    Frame rate mode : Constant
    Frame rate : 25.000 FPS
    Color space : YUV
    Chroma subsampling : 4: 2: 0
    Bit depth : 8 bits
    Scan type : Progressive
    Bits/(Pixel*Frame) : 0.104
    Stream size : 113 MiB (92%)
    Source stream size : 113 MiB (92%)
    Language : English
    Encoded date : UTC 2017-06-09 21: 44: 10
    Tagged date : UTC 2017-06-09 21: 44: 10
    mdhd_Duration : 394923
    Audio
    ID : 2
    Format : AAC
    Format/Info : Advanced Audio Codec
    Format profile : LC
    Codec ID : 40
    Duration : 6 min 34 s
    Duration_FirstFrame : -6 ms
    Bit rate mode : Variable
    Bit rate : 192 kb/s
    Channel(s) : 2 channels
    Channel positions : Front: L R
    Sampling rate : 44.1 kHz
    Frame rate : 43.066 FPS (1024 spf)
    Compression mode : Lossy
    Stream size : 9.04 MiB (7%)
    Language : English
    Encoded date : UTC 2017-06-09 21: 44: 10
    Tagged date : UTC 2017-06-09 21: 44: 10
    mdhd_Duration : 394942
    Скриншоты



    Релиз подготовил:
    Автор релиза: /
    Залил: tooon
    Размер скачиваемого торрента: 3.91 GB (4202251662 Bytes)

    Летающие звери (2012-2015) WEB-DLRip 720p от ExKinoRay
    Рейтинг →
     (голосов: 1, оценка 3/5, голосовать можно 1 раз )

    Другие торренты по теме:

  • Летающие звери (2012) DVDRip-AVC от New-Team | лицензия скачать через торрент бесплатно
  • Летающие звери (2012) DVD5 R5 от New-Team | лицензия скачать через торрент бесплатно
  • Летающие звери (2012) DVDRip от New-Team | лицензия скачать через торрент бесплатно
  • Летающие звери (1-30 серии + Бонусы) / 2012-2015 / РУ / WEBRip
  • Малыши и Летающие звери (30 серий из 30) / 2014-2015 / РУ / WEB-DLRip


    • Комментарии (0):

      Информация

      Информация

        Посетители, находящиеся в группе Гости, не могут оставлять комментарии в данной новости.

        ↓ Меню




        ↓ Опрос

        А Вы добавили сайт в закладки?
        Да
        Не


        Top 10 за месяц (Мультфильмы)