.
Авторизация | Регистрация
Хочешь лучшие торренты? Добавь свой email!
Добавить
  • support: webmaster@servmix.org
» » Сезон охоты 4: Страшно глупо / Open Season: Scared Silly (2015) BDRip 1080p от ExKinoRay | iTunes скачать торрент бесплатно


    Сезон охоты 4: Страшно глупо / Open Season: Scared Silly (2015) BDRip 1080p от ExKinoRay | iTunes скачать торрент бесплатно

    Опубликовал: Админ | Дата: 15-06-2016, 16:14 | .torrent скачали: 62


    Сезон охоты 4: Страшно глупо / Open Season: Scared Silly (2015) BDRip 1080p от ExKinoRay | iTunes
    Детально о кино
    Русское название: Сезон охоты 4: Страшно глупо
    Русское название в мировом прокате: Open Season: Scared Silly
    Создали в: 2015
    Категория жанра: Мультфильм, приключения, детский, семейный, полнометражный
    Главный режиссер: Дэвид Фейсс

    Актеры
    Кэтлин Барр, Гари Чок, Тревор Дивэлл, Донни Джеймс Лукас, Мелисса Штурм, Мэттью В. Тейлор

    Сюжет фильма

    Элиот, Буг и вся их лесная братва попадают в совершенно новое и очень-очень смешное приключение.

    Снималось в: США
    Киностудия: Sony Pictures Animation
    Время просмотра: 01: 24: 45
    Перевод текста: Дублированный | iTunes
    Файл
    Кодек для видео: MPEG-4
    Качество фильма: BDRip 1080p
    Информация о видео: 1920x1080, 6704 Kbit/s, 23.976 fps
    Информация о звуке:
    Информация о звуке #01: 48 kHz, AC3, 5.1, 384 Kbps | Дублированный, iTunes | AC3
    Информация о звуке #02: 48 kHz, DTS, 5.1, 1536 kbps | Оригинал | DTS
    Субтитры: Английские
    Релиз подготовил: Автор релиза:

    MI
    General
    Unique ID : 254730397030286667307334578722059928357 (0xBFA34A396AFC779998C9DED64B954325)
    Complete name : F: VideoOpen.Season.Scared.Silly.2015.BDRip.1080p.ExKinoRay.mkv
    Format : Matroska
    Format version : Version 4/Version 2
    File size : 5.11 GiB
    Duration : 1h 24mn
    Overall bit rate : 8 627 Kbps
    Movie name : Open.Season.Scared.Silly.2015.BDRip.1080p.ExKinoRay
    Encoded date : UTC 2016-06-14 07: 59: 46
    Writing application : mkvmerge v8.3.0 (;Over the Horizon;) 64bit
    Writing library : libebml v1.3.1 + libmatroska v1.4.2
    Video
    ID : 1
    Format : AVC
    Format/Info : Advanced Video Codec
    Format profile : High@L4.1
    Format settings, CABAC : Yes
    Format settings, ReFrames : 4 frames
    Codec ID : V_MPEG4/ISO/AVC
    Duration : 1h 24mn
    Bit rate : 6 704 Kbps
    Width : 1 920 pixels
    Height : 1 080 pixels
    Display aspect ratio : 16: 9
    Frame rate mode : Constant
    Frame rate : 23.976 (24000/1001) fps
    Color space : YUV
    Chroma subsampling : 4: 2: 0
    Bit depth : 8 bits
    Scan type : Progressive
    Bits/(Pixel*Frame) : 0.135
    Stream size : 3.97 GiB (78%)
    Writing library : x264 core 142 r2431+42 c69a006 tMod 8-bit@all X86_64
    Encoding settings : cabac=1/ref=4/deblock=1: -1: -1/analyse=0x3: 0x133/me=umh/subme=11/psy=1/fade_compensate=0.00/psy_rd=0.40: 0.00/mixed_ref=1/me_range=32/chroma_me=1/trellis=2/8x8dct=1/cqm=0/deadzone=21, 11/fast_pskip=0/chroma_qp_offset=-2/threads=60/lookahead_threads=8/sliced_threads=0/nr=0/decimate=0/interlaced=0/bluray_compat=0/constrained_intra=0/fgo=0/bframes=8/b_pyramid=2/b_adapt=2/b_bias=0/direct=3/weightb=1/open_gop=0/weightp=2/keyint=240/keyint_min=23/scenecut=40/intra_refresh=0/rc_lookahead=60/rc=crf/mbtree=0/crf=17.0000/qcomp=0.60/qpmin=0: 0: 0/qpmax=69: 69: 69/qpstep=4/vbv_maxrate=40000/vbv_bufsize=30000/crf_max=0.0/nal_hrd=none/filler=0/ip_ratio=1.40/pb_ratio=1.30/aq=1: 0.60/aq-sensitivity=10.00/aq-factor=1.00: 1.00: 1.00/aq2=0/aq3=0
    Language : English
    Default : Yes
    Forced : No
    Audio #1
    ID : 2
    Format : AC-3
    Format/Info : Audio Coding 3
    Mode extension : CM (complete main)
    Format settings, Endianness : Big
    Codec ID : A_AC3
    Duration : 1h 24mn
    Bit rate mode : Constant
    Bit rate : 384 Kbps
    Channel(s) : 6 channels
    Channel positions : Front: L C R, Side: L R, LFE
    Sampling rate : 48.0 KHz
    Frame rate : 31.250 fps (1536 spf)
    Compression mode : Lossy
    Stream size : 233 MiB (4%)
    Title : DUB iTunes
    Language : Russian
    Default : Yes
    Forced : No
    Audio #2
    ID : 3
    Format : DTS
    Format/Info : Digital Theater Systems
    Mode : 16
    Format settings, Endianness : Big
    Codec ID : A_DTS
    Duration : 1h 24mn
    Bit rate mode : Constant
    Bit rate : 1 536 Kbps
    Channel(s) : 6 channels
    Channel positions : Front: L C R, Side: L R, LFE
    Sampling rate : 48.0 KHz
    Frame rate : 93.750 fps (512 spf)
    Bit depth : 16 bits
    Compression mode : Lossy
    Stream size : 931 MiB (18%)
    Title : Original
    Language : English
    Default : No
    Forced : No
    Text #1
    ID : 4
    Format : UTF-8
    Codec ID : S_TEXT/UTF8
    Codec ID/Info : UTF-8 Plain Text
    Duration : 1h 19mn
    Bit rate : 83 bps
    Count of elements : 1142
    Stream size : 48.8 KiB (0%)
    Language : English
    Default : No
    Forced : No
    Text #2
    ID : 5
    Format : UTF-8
    Codec ID : S_TEXT/UTF8
    Codec ID/Info : UTF-8 Plain Text
    Duration : 1h 19mn
    Bit rate : 93 bps
    Count of elements : 1468
    Stream size : 54.8 KiB (0%)
    Title : SDH
    Language : English
    Default : No
    Forced : No
    Menu
    00: 00: 00.000 : en: Chapter 01
    00: 05: 02.635 : en: Chapter 02
    00: 10: 01.309 : en: Chapter 03
    00: 13: 58.671 : en: Chapter 04
    00: 18: 57.469 : en: Chapter 05
    00: 25: 54.886 : en: Chapter 06
    00: 33: 20.915 : en: Chapter 07
    00: 39: 17.229 : en: Chapter 08
    00: 42: 02.102 : en: Chapter 09
    00: 47: 39.356 : en: Chapter 10
    00: 54: 00.528 : en: Chapter 11
    00: 58: 00.643 : en: Chapter 12
    01: 03: 17.460 : en: Chapter 13
    01: 08: 40.366 : en: Chapter 14
    01: 14: 53.655 : en: Chapter 15
    01: 18: 20.904 : en: Chapter 16
    Скриншоты


    Онлайн видео Сезон охоты 4: Страшно глупо


    Размер скачиваемого торрента: 5.11 GB (5483813286 Bytes)

    Сезон охоты 4: Страшно глупо/Open Season: Scared Silly (2015) BDRip 1080p от ExKinoRay | iTunes
    Рейтинг →
     (голосов: 1, оценка 3/5, голосовать можно 1 раз )

    Другие торренты по теме:

  • Сезон охоты 2 / Open Season 2 (2008) HDRip | D
  • Сезон охоты 3 / Open Season 3 (2010) BDRip | D
  • Сезон охоты / Open Season (2006) BDRip-AVC | iPad | D скачать через торрент бесплатно
  • Сезон охоты 2 / Open Season 2 (2008) BDRip-AVC | D скачать через торрент бесплатно
  • Сезон охоты 3 / Open Season 3 (2010) BDRip-AVC | D скачать через торрент бесплатно
  • Сезон охоты / The Hunted (1998) TVRip | P2
  • Сезон охоты 4: Страшно глупо (2015)
  • Сезон охоты 4: Страшно глупо / Open Season: Scared Silly (2015) HDRip | iTunes


    • Комментарии (0):

      Информация

      Информация

        Посетители, находящиеся в группе Гости, не могут оставлять комментарии в данной новости.

        ↓ Меню




        ↓ Опрос

        А Вы добавили сайт в закладки?
        Да
        Не


        Top 10 за месяц (Мультфильмы)