.
Авторизация | Регистрация
Хочешь лучшие торренты? Добавь свой email!
Добавить
  • support: webmaster@servmix.org
» » Сезон охоты 4: Страшно глупо / Open Season: Scared Silly (2015) HDRip | iTunes скачать торрент бесплатно


    Сезон охоты 4: Страшно глупо / Open Season: Scared Silly (2015) HDRip | iTunes скачать торрент бесплатно

    Опубликовал: fregat | Дата: 15-06-2016, 16:14 | .torrent скачали: 60


    Сезон охоты 4: Страшно глупо / Open Season: Scared Silly (2015) HDRip | iTunes
    Детально о кино
    Русское название: Сезон охоты 4: Страшно глупо
    Русское название в мировом прокате: Open Season: Scared Silly
    Создали в: 2015
    Категория жанра: Мультфильм, комедия, приключения, семейный
    Главный режиссер: Дэвид Фейсс

    Актеры
    Уилльям Таунсенд, Мелисса Штурм, Тревор Дивэлл, Гари Чок, Брайан Драммонд, Кэтлин Барр, Шеннон Чан-Кент, Мишель Мурдокка, Питер Келамис, Мэттью В. Тейлор

    Сюжет фильма

    Олень Эллиот, такса Сосиска и их друзья сговариваются отучить медведя Буга бояться всего на свете. Услышав у ночного костра байку про Свирепого Волка-Оборотня, могучий гризли совсем потерял покой и стал вести себя как трусливая мышь. Из-за этого у компании срываются классные каникулы. Чтобы спугнуть напрасные медвежьи страхи, Эллиот и Сосиска снаряжают экспедицию в Тёмный Лес, открывая на его самого загадочного обитателя… свой сезон любимого сериала охоты. Но все прошлые приключения меркнут по сравнению с тем, что ждёт лесную команду в этот раз. Головокружительные погони, уморительные шутки и крутые сюжетные повороты — в первой мульт-комедии лета.

    Снималось в: США
    Киностудия: Sony Pictures Animation
    Время просмотра: 01: 24: 45
    Перевод текста: Профессиональный (полное дублирование)iTunes
    Файл
    Качество фильма: HDRip
    Кодек для видео: XviD
    Информация о видео: 720x400 (16: 9), 23, 976 fps, Xvid ~1916 kbps avg, 0.277 bit/pixel
    Информация о звуке: 48 kHz, AC3, 6 ch, ~384.00 kbps avg | русский|Профессиональный (полное дублирование)iTunes
    Субтитры: отсутствуют
    Семпл
    Инфо-файл
    Общее
    Полное имя : Ce30H.0x0ty.ba1ki.i3.LeCa.2015.D.HDRip.14OOMB.avi
    Формат : AVI
    Формат/Информация : Audio Video Interleave
    Размер файла : 1, 37 Гбайт
    Продолжительность : 1 ч. 24 м.
    Общий поток : 2309 Кбит/сек
    Название фильма : Ce30H.0x0ty.ba1ki.i3.LeCa.2015.D.HDRip.14OOMB
    Программа кодирования : VirtualDubMod 1.5.10.2 (build 2540/release)
    Формат оригинала/Имя : Movie
    Видео
    Идентификатор : 0
    Формат : MPEG-4 Visual
    Профиль формата : Advanced Simple@L5
    Параметр BVOP формата : 2
    Параметр QPel формата : Нет
    Параметр GMC формата : Без точки перехода
    Параметр матрицы формата : Default (MPEG)
    Идентификатор кодека : XVID
    Идентификатор кодека/Подсказка : XviD
    Продолжительность : 1 ч. 24 м.
    Битрейт : 1916 Кбит/сек
    Ширина : 720 пикселей
    Высота : 400 пикселей
    Соотношение сторон : 16: 9
    Частота кадров : 23, 976 (24000/1001) кадра/сек
    Цветовое пространство : YUV
    Субдискретизация насыщенности : 4: 2: 0
    Битовая глубина : 8 бит
    Тип развёртки : Прогрессивная
    Метод сжатия : С потерями
    Бит/(Пиксели*Кадры) : 0.277
    Размер потока : 1, 13 Гбайт (83%)
    Библиотека кодирования : XviD 1.2.1 (UTC 2008-12-04)
    Аудио
    Идентификатор : 1
    Формат : AC-3
    Формат/Информация : Audio Coding 3
    Расширение режима : CM (complete main)
    Параметр Endianness формата : Big
    Идентификатор кодека : 2000
    Продолжительность : 1 ч. 24 м.
    Вид битрейта : Постоянный
    Битрейт : 384 Кбит/сек
    Каналы : 6 каналов
    Расположение каналов : Front: L C R, Side: L R, LFE
    Частота : 48, 0 КГц
    Частота кадров : 31, 250 кадров/сек (1536 spf)
    Метод сжатия : С потерями
    Размер потока : 233 Мбайт (17%)
    Выравнивание : Разделение по промежуткам
    Продолжительность промежутка : 42 мс. (1, 00 видеокадр)
    Время предзагрузки промежутка : 500 мс.
    Скриншоты


    Онлайн видео Сезон охоты 4: Страшно глупо


    Размер скачиваемого торрента: 1.37 GB (1467713536 Bytes)

    Сезон охоты 4: Страшно глупо/Open Season: Scared Silly (2015) HDRip | iTunes
    Рейтинг →
     (голосов: 1, оценка 5/5, голосовать можно 1 раз )

    Другие торренты по теме:

  • Сезон охоты 2 / Open Season 2 (2008) HDRip | D
  • Сезон охоты 3 / Open Season 3 (2010) BDRip | D
  • Сезон охоты / Open Season (2006) BDRip-AVC | iPad | D скачать через торрент бесплатно
  • Сезон охоты 2 / Open Season 2 (2008) BDRip-AVC | D скачать через торрент бесплатно
  • Сезон охоты 3 / Open Season 3 (2010) BDRip-AVC | D скачать через торрент бесплатно
  • Сезон охоты / The Hunted (1998) TVRip | P2
  • Сезон охоты 4: Страшно глупо (2015)
  • Сезон охоты 4: Страшно глупо / Open Season: Scared Silly (2015) BDRip 1080p от ExKinoRay | iTunes


    • Комментарии (0):

      Информация

      Информация

        Посетители, находящиеся в группе Гости, не могут оставлять комментарии в данной новости.

        ↓ Меню




        ↓ Опрос

        А Вы добавили сайт в закладки?
        Да
        Не


        Top 10 за месяц (Мультфильмы)