.
Авторизация | Регистрация
Хочешь лучшие торренты? Добавь свой email!
Добавить
  • support: webmaster@servmix.org
» » Хорошая пара / Two of a Kind (1983) DVDRip от Youtracker скачать торрент бесплатно


    Хорошая пара / Two of a Kind (1983) DVDRip от Youtracker скачать торрент бесплатно

    Опубликовал: Админ | Дата: 27-02-2015, 11:09 | .torrent скачали: 298

    Хорошая пара / Two of a Kind (1983) DVDRip от Youtracker
    Страна: США
    Производство: 20th Century Fox Film Corporation, Joe Wizan-Roger M. Rothstein Production

    Жанр: комедия, мелодрама
    Год выпуска: 1983
    Продолжительность: 01:24:04

    Перевод: Профессиональный (многоголосый, закадровый)
    Оригинальная аудиодорожка: нет
    Cубтитры: нет

    Режиссер: Джон Херцфелд / John Herzfeld

    В ролях: Джон Траволта / John Travolta, Оливия Ньютон-Джон / Olivia Newton-John, Оливер Рид / Oliver Reed, Чарльз Дарнинг / Charles Durning, Ричард Брайт / Richard Bright...

    Описание:
    Господь Бог возвращается из отпуска и видит, что за его отсутствие в мире стало очень плохо. Он вызывает ангелов и заявляет, что собирается стереть с лица земли человеческую расу и начать все заново. Ангелы уговаривают Его изменить свое решение… И судьба Земли оказывается в руках конкретного человека, причем взятого наугад. Выбор падает на неудачливого изобретателя Зэка, который в компании с банковской служащей Дебби должен доказать, что человек не так уж плох, как кажется на первый взгляд…



    Исходник: DVD5 R5
    Тип релиза: DVDRip
    Контейнер: AVI

    Видео: 704x384 (16:9), 25 fps, XviD ~ 1101 kbps avg, 0.163 bit/pixel
    Аудио: 48 kHz, MP3 2.0, 128 kbps

    Раздача от:
    MediaInfo

    Общее
    Полное имя : Horoshaya.para.1983.DVDRip-745_Youtracker_by_AVP Studio.avi
    Формат : AVI
    Формат/Информация : Audio Video Interleave
    Размер файла : 745 Мбайт
    Продолжительность : 1 ч. 24 м.
    Общий поток : 1238 Кбит/сек
    Программа кодирования : VirtualDubMod 1.5.10.3 | www.virtualdub-fr.org || (build 2550/release)
    Библиотека кодирования : VirtualDubMod build 2550/release

    Видео
    Идентификатор : 0
    Формат : MPEG-4 Visual
    Профиль формата : Advanced Simple@L5
    Параметр BVOP формата : 1
    Параметр QPel формата : Нет
    Параметр GMC формата : Без точки перехода
    Параметр матрицы формата : Выборочная
    Идентификатор кодека : XVID
    Идентификатор кодека/Подсказка : XviD
    Продолжительность : 1 ч. 24 м.
    Битрейт : 1101 Кбит/сек
    Ширина : 704 пикселя
    Высота : 384 пикселя
    Соотношение сторон : 16:9
    Частота кадров : 25,000 кадров/сек
    Цветовое пространство : YUV
    Субдискретизация насыщенности : 4:2:0
    Битовая глубина : 8 бит
    Тип развёртки : Прогрессивная
    Метод сжатия : С потерями
    Бит/(Пиксели*Кадры) : 0.163
    Размер потока : 662 Мбайт (89%)
    Библиотека кодирования : XviD 65

    Аудио
    Идентификатор : 1
    Формат : MPEG Audio
    Версия формата : Version 1
    Профиль формата : Layer 3
    Идентификатор кодека : 55
    Идентификатор кодека/Подсказка : MP3
    Продолжительность : 1 ч. 24 м.
    Вид битрейта : Постоянный
    Битрейт : 128 Кбит/сек
    Каналы : 2 канала
    Частота : 48,0 КГц
    Метод сжатия : С потерями
    Размер потока : 77,0 Мбайт (10%)
    Выравнивание : Соединение по промежуткам
    Продолжительность промежутка : 40 мс. (1,00 видеокадр)
    Время предзагрузки промежутка : 504 мс.
    Библиотека кодирования : L3.99r
    Залил: AVPStudio
    Размер: 744.65 MB (780822528 Bytes)
    Рейтинг →
     (голосов: 1, оценка 3/5, голосовать можно 1 раз )

    Другие торренты по теме:

  • Хорошая пара / Two of a Kind (1983) DVD5 R5 от New-Team скачать через торрент бесплатно
  • Хорошая пара / Two of a Kind (1983) DVDRip от New-Team


    • Комментарии (0):

      Информация

      Информация

        Посетители, находящиеся в группе Гости, не могут оставлять комментарии в данной новости.

        ↓ Меню




        ↓ Опрос

        А Вы добавили сайт в закладки?
        Да
        Не


        Top 10 за месяц (Фильмы)