.
Авторизация | Регистрация
Хочешь лучшие торренты? Добавь свой email!
Добавить
  • support: webmaster@servmix.org
» » Обитель зла 2: Апокалипсис / Resident Evil: Apocalypse (2004) BDRip-AVC от 0ptimus | D, P2, A скачать торрент бесплатно


    Обитель зла 2: Апокалипсис / Resident Evil: Apocalypse (2004) BDRip-AVC от 0ptimus | D, P2, A скачать торрент бесплатно

    Опубликовал: fregat | Дата: 27-02-2015, 11:09 | .torrent скачали: 339

    Обитель зла 2: Апокалипсис / Resident Evil: Apocalypse (2004) BDRip-AVC от 0ptimus | D, P2, A

    Информация о фильме
    Название: Обитель зла 2: Апокалипсис
    Оригинальное название: Resident Evil: Apocalypse
    Год выхода: 2004
    Жанр: Ужасы, фантастика, боевик
    Режиссер: Александр Уитт
    В ролях: Милла Йовович, Сиенна Гиллори, Одед Фер, Томас Кречманн, Софи Вавасо, Разаак Адоти, Джаред Харрис, Майк Эппс, Сандрин Холт, Мэттью Дж. Тейлор, Зак Уорд, Айэйн Глен, Дэйв Николс, Стефен Хэйес, Джеффри Паунсетт, Шон Остин-Ольсен, Джини Уолтерс, Миган Фаленбок, Роберт Морелли, Аарон Абрамс, Крис Бенсон, Мартин Мартинуцци, Брэд Бобридж, Фрэнк Чисарин, Рон Бенжамин, Кевин Хэа, Хезер Дик, Алекс Кури, Джон Деторо, Билли Хури, Сава Дрейтон, Николь Энн Ст. Хилл, Рикардо Бетанкорт, Тед Лудзик, Мишель Латимер, Катрин Бёрдон, Ребекка Симс, Кристофер Уидон

    О фильме:
    Действие картины разворачивается на улицах печально известного Ракун-сити, города, контролируемого могущественной корпорацией Амбрелла. После химический катастрофы все жители стали медленно превращаться в зомби, а те немногочисленные граждане, чей разум ещё не был до конца изъеден ужасным вирусом, доживали свои последние дни в атмосфере страха и желания скорейшей смерти…



    Страна: Германия, Франция, Великобритания, Канада, США
    Студия: Constantin Film Produktion GmbH, Davis-Films, Impact Pictures
    Продолжительность: 01:33:48
    Перевод: Дублированный, (профессиональный двухголосый закадровый), авторский (одноголосый закадровый)

    Файл
    Кодек: h.264
    Качество: BDRip-AVC
    Видео: MPEG-4 AVC, 2791 Кбит/с, 1024x424, 23.976 кадр/с

    Звук:
    • №1: Русский (AC3, 6 ch, 384 Кбит/с) Дублированный Парадиз-ВС
    • №2: Русский (AC3, 6 ch, 384 Кбит/с) Профессиональный двухголосый Tycoon-Studio
    • №3: Русский (AC3, 6 ch, 384 Кбит/с) Профессиональный двухголосый Петр Гланц и Инна Королева
    • №4: Русский (AC3, 6 ch, 384 Кбит/с) Авторский одноголосый Юрий Живов
    • №5: Украинский (AC3, 2 ch, 192 Кбит/с) Профессиональный многоголосый ICTV
    • №6: Английский (AC3, 6 ch, 384 Кбит/с)

    Субтитры: Русские, английские

    MediaInfo

    Полное имя : Obitel.zla.2.Apokalipsis.2004.x264.BDRip.(AVC).0ptimus.mkv
    Формат : Matroska
    Версия формата : Version 2
    Размер файла : 3,21 Гбайт
    Продолжительность : 1 ч. 33 м.
    Общий поток : 4897 Кбит/сек
    Название фильма : Обитель зла 2: Апокалипсис / Resident Evil: Apocalypse 2004 -=BDRip (AVC) by 0ptimus=-
    Дата кодирования : UTC 2013-01-19 10:42:12
    Программа кодирования : mkvmerge v5.8.0 (;No Sleep / Pillow;) built on Sep 2 2012 15:37:04
    Библиотека кодирования : libebml v1.2.3 libmatroska v1.3.0

    Видео
    Идентификатор : 1
    Формат : AVC
    Формат/Информация : Advanced Video Codec
    Профиль формата : High@L4.1
    Параметр CABAC формата : Да
    Параметр ReFrames формата : 9 кадров
    Идентификатор кодека : V_MPEG4/ISO/AVC
    Битрейт : 2791 Кбит/сек
    Ширина : 1024 пикселя
    Высота : 424 пикселя
    Соотношение сторон : 2,40:1
    Режим частоты кадров : Переменный
    Частота кадров в оригинале : 23,976 кадра/сек
    Цветовое пространство : YUV
    Субдискретизация насыщенности : 4:2:0
    Битовая глубина : 8 бит
    Тип развёртки : Прогрессивная
    Бит/(Пиксели*Кадры) : 0.268
    Заголовок : by 0ptimus
    Библиотека кодирования : x264 core 129 r2245 bc13772
    Настройки программы : cabac=1 / ref=9 / deblock=1:-3:-3 / analyse=0x3:0x113 / me=umh / subme=11 / psy=1 / psy_rd=1.00:0.20 / mixed_ref=1 / me_range=32 / chroma_me=1 / trellis=2 / 8x8dct=1 / cqm=0 / deadzone=21,11 / fast_pskip=0 / chroma_qp_offset=-3 / threads=4 / lookahead_threads=1 / sliced_threads=0 / nr=0 / decimate=0 / interlaced=0 / bluray_compat=0 / constrained_intra=0 / bframes=11 / b_pyramid=2 / b_adapt=2 / b_bias=0 / direct=3 / weightb=1 / open_gop=0 / weightp=2 / keyint=240 / keyint_min=23 / scenecut=40 / intra_refresh=0 / rc_lookahead=40 / rc=2pass / mbtree=0 / bitrate=2791 / ratetol=1.0 / qcomp=0.60 / qpmin=0 / qpmax=69 / qpstep=4 / cplxblur=20.0 / qblur=0.5 / vbv_maxrate=50000 / vbv_bufsize=50000 / nal_hrd=none / ip_ratio=1.40 / pb_ratio=1.30 / aq=1:1.00
    Язык : English
    Default : Да
    Forced : Да

    Аудио #1
    Идентификатор : 2
    Формат : AC-3
    Формат/Информация : Audio Coding 3
    Расширение режима : CM (complete main)
    Параметр Endianness формата : Big
    Идентификатор кодека : A_AC3
    Продолжительность : 1 ч. 33 м.
    Вид битрейта : Постоянный
    Битрейт : 384 Кбит/сек
    Каналы : 6 каналов
    Расположение каналов : Front: L C R, Side: L R, LFE
    Частота : 48,0 КГц
    Битовая глубина : 16 бит
    Метод сжатия : С потерями
    Размер потока : 258 Мбайт (8%)
    Заголовок : Дублированный Парадиз-ВС
    Язык : Russian
    Default : Да
    Forced : Да

    Аудио #2
    Идентификатор : 3
    Формат : AC-3
    Формат/Информация : Audio Coding 3
    Расширение режима : CM (complete main)
    Параметр Endianness формата : Big
    Идентификатор кодека : A_AC3
    Продолжительность : 1 ч. 33 м.
    Вид битрейта : Постоянный
    Битрейт : 384 Кбит/сек
    Каналы : 6 каналов
    Расположение каналов : Front: L C R, Side: L R, LFE
    Частота : 48,0 КГц
    Битовая глубина : 16 бит
    Метод сжатия : С потерями
    Размер потока : 258 Мбайт (8%)
    Заголовок : Двухголосый Tycoon-Studio
    Язык : Russian
    Default : Нет
    Forced : Нет

    Аудио #3
    Идентификатор : 4
    Формат : AC-3
    Формат/Информация : Audio Coding 3
    Расширение режима : CM (complete main)
    Параметр Endianness формата : Big
    Идентификатор кодека : A_AC3
    Продолжительность : 1 ч. 33 м.
    Вид битрейта : Постоянный
    Битрейт : 384 Кбит/сек
    Каналы : 6 каналов
    Расположение каналов : Front: L C R, Side: L R, LFE
    Частота : 48,0 КГц
    Битовая глубина : 16 бит
    Метод сжатия : С потерями
    Размер потока : 258 Мбайт (8%)
    Заголовок : Двухголосый Петр Гланц и Инна Королева
    Язык : Russian
    Default : Нет
    Forced : Нет

    Аудио #4
    Идентификатор : 5
    Формат : AC-3
    Формат/Информация : Audio Coding 3
    Расширение режима : CM (complete main)
    Параметр Endianness формата : Big
    Идентификатор кодека : A_AC3
    Продолжительность : 1 ч. 33 м.
    Вид битрейта : Постоянный
    Битрейт : 384 Кбит/сек
    Каналы : 6 каналов
    Расположение каналов : Front: L C R, Side: L R, LFE
    Частота : 48,0 КГц
    Битовая глубина : 16 бит
    Метод сжатия : С потерями
    Размер потока : 258 Мбайт (8%)
    Заголовок : Авторский Юрий Живов
    Язык : Russian
    Default : Нет
    Forced : Нет

    Аудио #5
    Идентификатор : 6
    Формат : AC-3
    Формат/Информация : Audio Coding 3
    Расширение режима : CM (complete main)
    Параметр Endianness формата : Big
    Идентификатор кодека : A_AC3
    Продолжительность : 1 ч. 33 м.
    Вид битрейта : Постоянный
    Битрейт : 192 Кбит/сек
    Каналы : 2 канала
    Расположение каналов : Front: L R
    Частота : 48,0 КГц
    Битовая глубина : 16 бит
    Метод сжатия : С потерями
    Размер потока : 129 Мбайт (4%)
    Заголовок : Многоголосый ICTV
    Язык : Ukrainian
    Default : Нет
    Forced : Нет

    Аудио #6
    Идентификатор : 7
    Формат : AC-3
    Формат/Информация : Audio Coding 3
    Расширение режима : CM (complete main)
    Параметр Endianness формата : Big
    Идентификатор кодека : A_AC3
    Продолжительность : 1 ч. 33 м.
    Вид битрейта : Постоянный
    Битрейт : 384 Кбит/сек
    Каналы : 6 каналов
    Расположение каналов : Front: L C R, Side: L R, LFE
    Частота : 48,0 КГц
    Битовая глубина : 16 бит
    Метод сжатия : С потерями
    Размер потока : 258 Мбайт (8%)
    Язык : English
    Default : Нет
    Forced : Нет

    Текст #1
    Идентификатор : 8
    Формат : UTF-8
    Идентификатор кодека : S_TEXT/UTF8
    Идентификатор кодека/Информация : UTF-8 Plain Text
    Язык : Russian
    Default : Нет
    Forced : Нет

    Текст #2
    Идентификатор : 9
    Формат : UTF-8
    Идентификатор кодека : S_TEXT/UTF8
    Идентификатор кодека/Информация : UTF-8 Plain Text
    Язык : English
    Default : Нет
    Forced : Нет

    Меню
    00:00:00.000 : :Start
    00:05:56.356 : :Girls with Guns
    00:05:56.813 : :Seal the Gates
    00:07:22.442 : :Someone Left Alive
    00:14:52.224 : :No Sanctuary
    00:15:42.398 : :Boxed In
    00:19:38.051 : :A New Kind of Alice / :Cemetery
    00:24:02.398 : :Nemesis Program
    00:28:13.650 : :Targets Acquired
    00:30:52.934 : :The Deal of Their Lives
    00:33:13.866 : :Alice vs. Nemesis
    00:36:15.797 : :A Promise Kept
    00:42:48.315 : :Children
    00:45:38.902 : :Dogs
    00:49:02.564 : :Antivirus
    00:56:26.508 : :Father Daughter
    01:00:40.970 : :Rendezvous
    01:03:54.622 : :We;ve Been Expecting You
    01:07:08.858 : :Alice vs. Nemesis Ii
    01:13:13.097 : :Evolution
    01:18:07.057 : :Drop Your Weapon and Surrender
    01:18:07.099 : :Taking Out the Trash
    01:22:26.858 : :Apocalypse
    01:24:27.854 : :Shocking Images

    x264 log

    x264 info: frame I:1375 Avg QP:15.03 size: 63804
    x264 info: frame P:33013 Avg QP:17.83 size: 26272
    x264 info: frame B:100564 Avg QP:19.65 size: 9969

    Скриншоты




    Релиз от: 0ptimus
    Размер: 3.21 GB (3445753642 Bytes)
    Рейтинг →
     (голосов: 1, оценка 4/5, голосовать можно 1 раз )

    Другие торренты по теме:

  • Обитель зла: Трилогия / Resident Evil: Trilogy (2008-2017) BDRip 720p от HELLYWOOD | P, A
  • Обитель зла Проклятие / Biohazard Damnation / Resident Evil Damnation (2012) BDRip 1080p от R.G. GoldenShara | Лицензия
  • Обитель зла: Вырождение / Resident Evil: Degeneration (2008) DVD5
  • Обитель Зла: Проклятие / Resident Evil: Damnation (2012) BDRemux 1080p
  • Обитель зла: Возмездие / Resident Evil: Retribution (2012) DVD9 от NovaLan
  • OST - Обитель зла / Resident Evil 1-5 (2002-2012) MP3
  • Обитель Зла: Проклятие 3Д / Resident Evil: Damnation 3D (2012) BDRip 1080p | 3D-Video
  • Обитель зла 4: Жизнь после смерти / Resident Evil: Afterlife (2010) BDRip 1080p от FREEISLAND | D


    • Комментарии (0):

      Информация

      Информация

        Посетители, находящиеся в группе Гости, не могут оставлять комментарии в данной новости.

        ↓ Меню




        ↓ Опрос

        А Вы добавили сайт в закладки?
        Да
        Не


        Top 10 за месяц (Фильмы)