.
Авторизация | Регистрация
Хочешь лучшие торренты? Добавь свой email!
Добавить
  • support: webmaster@servmix.org
» » Большая слежка / The Big Trail (1930) BDRip от Youtracker | P, L1 скачать торрент бесплатно


    Большая слежка / The Big Trail (1930) BDRip от Youtracker | P, L1 скачать торрент бесплатно

    Опубликовал: fregat | Дата: 27-02-2015, 11:09 | .torrent скачали: 351

    The Most Important Picture Ever Produced

    Большая слежка / The Big Trail (1930) BDRip от Youtracker | P, L1
    Год выпуска: 1930
    Страна: США
    Жанр: мелодрама, приключения, вестерн
    Продолжительность: 01:56:44
    Перевод: Профессиональный (многоголосый, закадровый) Светла, любительский (одноголосый)
    Оригинальная аудиодорожка: английский
    Cубтитры: нет

    Режиссер: Рауль Уолш / Raoul Walsh, Луис Р. Лоффлер / Louis R. Loeffler

    В ролях: Джон Уэйн, Маргарит Черчилль, Эль Брендел, Талли Маршалл, Тайрон Пауэр ст., Дэвид Роллинз, Фредерик Бертон, Иэн Кит, Чарльз Стивенс, Луиз Карвер...

    Описание: Брек Коулмэн человек молодой и горячий, желающий отомстить за смерть своего старого друга. Он подозревает Реда Флэка и его подручного Лопеса и чтобы подтвердить свои подозрения он присоединяется к группе переселенцев, следующих на Запад под началом Флэка.
    Во время похода Брек знакомится с дочерью полковника — Рут Кэмерон, которая присоединяется к каравану вместе с младшим братом и маленькой сестрой и между молодыми людьми вспыхивает взаимное чувство, хотя они оба с гонором и не хотят признаться в этом друг другу.




    Исходник: Blu-ray 1080p
    Тип релиза: BDRip
    Контейнер: AVI

    Видео: 704x336 (2.095:1), 25.000 fps, XviD ~ 2095 kbps avg, 0.352 bit/pixel
    Аудио 1: 48 kHz, Dolby AC3 2.0 192 kbps, русский MVO
    Аудио 2: 48 kHz, Dolby AC3 2.0 192 kbps, русский VO
    Аудио 3: 48 kHz, Dolby AC3 2.0 192 kbps, английский

    Раздача от:
    MediaInfo

    Общее
    Полное имя : Bolshaya.slezhka.1930.P.BDRip.2.18GB_Youtracker_by_avproh.avi
    Формат : AVI
    Формат/Информация : Audio Video Interleave
    Профиль формата : OpenDML
    Размер файла : 2,20 Гбайт
    Продолжительность : 1 ч. 56 м.
    Общий поток : 2695 Кбит/сек
    Программа кодирования : VirtualDubMod 1.5.10.3 (build 2550/release)
    Библиотека кодирования : VirtualDubMod build 2550/release

    Видео
    Идентификатор : 0
    Формат : MPEG-4 Visual
    Профиль формата : Advanced Simple@L5
    Параметр BVOP формата : 1
    Параметр QPel формата : Нет
    Параметр GMC формата : Без точки перехода
    Параметр матрицы формата : Выборочная
    Идентификатор кодека : XVID
    Идентификатор кодека/Подсказка : XviD
    Продолжительность : 1 ч. 56 м.
    Битрейт : 2095 Кбит/сек
    Ширина : 704 пикселя
    Высота : 336 пикселей
    Соотношение сторон : 2,095
    Частота кадров : 25,000 кадров/сек
    Цветовое пространство : YUV
    Субдискретизация насыщенности : 4:2:0
    Битовая глубина : 8 бит
    Тип развёртки : Прогрессивная
    Метод сжатия : С потерями
    Бит/(Пиксели*Кадры) : 0.354
    Размер потока : 1,71 Гбайт (78%)
    Библиотека кодирования : XviD 65

    Аудио #1
    Идентификатор : 1
    Формат : AC-3
    Формат/Информация : Audio Coding 3
    Профиль формата : Dolby Digital
    Расширение режима : CM (complete main)
    Параметр Endianness формата : Big
    Идентификатор кодека : 2000
    Продолжительность : 1 ч. 56 м.
    Вид битрейта : Постоянный
    Битрейт : 192 Кбит/сек
    Каналы : 2 канала
    Расположение каналов : Front: L R
    Частота : 48,0 КГц
    Битовая глубина : 16 бит
    Метод сжатия : С потерями
    Размер потока : 160 Мбайт (7%)
    Выравнивание : Разделение по промежуткам
    Продолжительность промежутка : 40 мс. (1,00 видеокадр)
    Время предзагрузки промежутка : 500 мс.

    Аудио #2
    Идентификатор : 2
    Формат : AC-3
    Формат/Информация : Audio Coding 3
    Профиль формата : Dolby Digital
    Расширение режима : CM (complete main)
    Параметр Endianness формата : Big
    Идентификатор кодека : 2000
    Продолжительность : 1 ч. 56 м.
    Вид битрейта : Постоянный
    Битрейт : 192 Кбит/сек
    Каналы : 2 канала
    Расположение каналов : Front: L R
    Частота : 48,0 КГц
    Битовая глубина : 16 бит
    Метод сжатия : С потерями
    Размер потока : 160 Мбайт (7%)
    Выравнивание : Разделение по промежуткам
    Продолжительность промежутка : 40 мс. (1,00 видеокадр)
    Время предзагрузки промежутка : 500 мс.

    Аудио #3
    Идентификатор : 3
    Формат : AC-3
    Формат/Информация : Audio Coding 3
    Расширение режима : CM (complete main)
    Параметр Endianness формата : Big
    Идентификатор кодека : 2000
    Продолжительность : 1 ч. 56 м.
    Вид битрейта : Постоянный
    Битрейт : 192 Кбит/сек
    Каналы : 2 канала
    Расположение каналов : Front: L R
    Частота : 48,0 КГц
    Битовая глубина : 16 бит
    Метод сжатия : С потерями
    Размер потока : 160 Мбайт (7%)
    Выравнивание : Разделение по промежуткам
    Продолжительность промежутка : 40 мс. (1,00 видеокадр)
    Время предзагрузки промежутка : 500 мс.

    Скриншоты



    Залил: avproh
    Размер: 2.20 GB (2359277568 Bytes)
    Рейтинг →
     (голосов: 1, оценка 4/5, голосовать можно 1 раз )

    Другие торренты по теме:

  • Большая буква Р / Большая Ж / The Big C (2012) HDTVRip от Ozz
  • Большая заморозка / The Big Freeze (1993) DVDRip от Brazzass
  • Большая прогулка / La grande vadrouille (1966) BDRip-AVC
  • Armada Music - Большая подборка клипов (2008-2012) WEBRip 720p-1080p
  • Большая вечеринка / Le grand soir (2012) BDRip от HQCLUB | Лицензия
  • Dance music - Большая подборка клипов (2009-2013) WEBRip 720p-1080p
  • Большая Афера / The Big Swindle / Beomjweui Jaeguseong (2004) HDRip | L1
  • Dance music - Большая подборка клипов 2 (2011-2013) WEBRip 720p


    • Комментарии (0):

      Информация

      Информация

        Посетители, находящиеся в группе Гости, не могут оставлять комментарии в данной новости.

        ↓ Меню




        ↓ Опрос

        А Вы добавили сайт в закладки?
        Да
        Не


        Top 10 за месяц (Фильмы)