.
Авторизация | Регистрация
Хочешь лучшие торренты? Добавь свой email!
Добавить
  • support: webmaster@servmix.org
» » Боец поневоле / Forced to Fight (2011) DVD9 от NovaLan скачать торрент бесплатно


    Боец поневоле / Forced to Fight (2011) DVD9 от NovaLan скачать торрент бесплатно

    Опубликовал: Админ | Дата: 27-02-2015, 11:09 | .torrent скачали: 401

    Боец поневоле / Forced to Fight (2011) DVD9 от NovaLan

    Название: Боец поневоле
    Оригинальное название: Forced to Fight
    Год выхода: 2011
    Жанр: Боевик
    Режиссер: Джонас Куастел
    В ролях: Владимир Коморовски, Гэри Дэниелс, Брайан Флаэрти, Филип Грэйнджер, Арки Аломар, Флорин Роата, Корбин Томас, Александра Уивер, Питер Уэллер, Дорджн Захарджа
    О фильме:
    Строптивый участник боёв без правил идёт наперекор воле босса, выигрывает схватку и сбегает с деньгами. По излишней самоуверенности он полагает, что мафию можно обмануть. Но это не так. Не успевает он выйти на улицу, как попадает в лапы громил и едва не погибает. На нем висит большой долг, который хозяин предлагает оплатить старшему брату…


    Страна: Канада, Castel Films, CC Capital Arts Entertainment SRL, PHD Productions
    Продолжительность: 01:36:03
    Перевод: Профессиональный многоголосый

    Кодек: MPEG-2
    Качество: DVD-9
    Видео: PAL 16:9 (720x576) VBR
    Звук: Русский, английский (Dolby AC3, 6 ch)
    Субтитры: Английские

    Релиз группы NovaLan
    Автор релиза Sergei7721
    Производство: Blu-Ray Disc DVD-9
    Дата релиза: 17.01.2013

    Профессиональный многоголосый (AC3, 6 ch, 448 Кбит/с) - 6 каналов получено из английской дорожки




    DVDInfo

    Title:
    Size: 7.02 Gb ( 7 357 338 KBytes ) - DVD-9
    Enabled regions: 1, 2, 3, 4, 5, 6, 7, 8

    VTS_01 :
    Play Length: 01:36:03
    Video: PAL 16:9 (720x576) VBR, Auto PanScan
    Audio:
    Russian (Dolby AC3, 6 ch)
    English (Dolby AC3, 6 ch)
    Subtitles:
    English

    VTS_02 :
    Play Length: 00:02:17
    Video: PAL 16:9 (720x576) VBR, Auto PanScan
    Audio:
    English (Dolby AC3, 2 ch)

    VTS_03 :
    Play Length: 00:02:46
    Video: PAL 16:9 (720x576) VBR, Auto PanScan
    Audio:
    English (Dolby AC3, 2 ch)

    VTS_04 :
    Play Length: 00:01:17
    Video: PAL 16:9 (720x576) VBR, Auto PanScan
    Audio:
    English (Dolby AC3, 2 ch)

    Menu Video:
    NTSC 4:3 (720x480) VBR
    Auto PanScan, Auto Letterboxed
    Menu English Language Unit :
    Root Menu

    MediaInfo

    Полное имя : C:UsersСергейDownloadsРаздачиBoec.ponevole.2011.DVD9.NovaLanVIDEO_TSVTS_01_1.VOB
    Формат : MPEG-PS
    Размер файла : 1024 Мбайт
    Продолжительность : 14 м.
    Режим общего битрейта : Переменный
    Общий поток : 9860 Кбит/сек

    Видео
    Идентификатор : 224 (0xE0)
    Формат : MPEG Video
    Версия формата : Version 2
    Профиль формата : Main@Main
    Параметр BVOP формата : Да
    Параметр матрицы формата : Выборочная
    Продолжительность : 14 м.
    Вид битрейта : Переменный
    Битрейт : 8768 Кбит/сек
    Максимальный битрейт : 8900 Кбит/сек
    Ширина : 720 пикселей
    Высота : 576 пикселей
    Соотношение сторон : 16:9
    Частота кадров : 25,000 кадров/сек
    Стандарт вещания : PAL
    Цветовое пространство : YUV
    Субдискретизация насыщенности : 4:2:0
    Битовая глубина : 8 бит
    Тип развёртки : Чересстрочная
    Порядок развёртки : Верхнее поле первое
    Метод сжатия : С потерями
    Бит/(Пиксели*Кадры) : 0.846
    Размер потока : 911 Мбайт (89%)

    Аудио #1
    Идентификатор : 189 (0xBD)-128 (0x80)
    Формат : AC-3
    Формат/Информация : Audio Coding 3
    Расширение режима : CM (complete main)
    Параметр Endianness формата : Big
    Режим смешивания : DVD-Video
    Продолжительность : 14 м.
    Вид битрейта : Постоянный
    Битрейт : 448 Кбит/сек
    Каналы : 6 каналов
    Расположение каналов : Front: L C R, Side: L R, LFE
    Частота : 48,0 КГц
    Битовая глубина : 16 бит
    Метод сжатия : С потерями
    Размер потока : 46,5 Мбайт (5%)

    Аудио #2
    Идентификатор : 189 (0xBD)-129 (0x81)
    Формат : AC-3
    Формат/Информация : Audio Coding 3
    Расширение режима : CM (complete main)
    Параметр Endianness формата : Big
    Режим смешивания : DVD-Video
    Продолжительность : 14 м.
    Вид битрейта : Постоянный
    Битрейт : 448 Кбит/сек
    Каналы : 6 каналов
    Расположение каналов : Front: L C R, Side: L R, LFE
    Частота : 48,0 КГц
    Битовая глубина : 16 бит
    Метод сжатия : С потерями
    Размер потока : 46,5 Мбайт (5%)

    Текст
    Идентификатор : 189 (0xBD)-32 (0x20)
    Формат : RLE
    Формат/Информация : Run-length encoding
    Режим смешивания : DVD-Video

    Дополнительно:
    За кадром с Питером Веллером
    Снимая бои: Создание Боец поневоле
    Трейлер

    Скриншоты меню




    Релиз от:
    Залил: Sergei7721
    Размер: 7.02 GB (7533914112 Bytes)
    Рейтинг →
     (голосов: 1, оценка 3/5, голосовать можно 1 раз )

    Другие торренты по теме:

  • Боец поневоле / Forced to Fight (2011) HDRip от TorrNada | КПК


    • Комментарии (0):

      Информация

      Информация

        Посетители, находящиеся в группе Гости, не могут оставлять комментарии в данной новости.

        ↓ Меню




        ↓ Опрос

        А Вы добавили сайт в закладки?
        Да
        Не


        Top 10 за месяц (Фильмы)