.
Авторизация | Регистрация

Бесплатно скачать торрент фильмы, игры, музыка, книги, журналы

  • support: webmaster@servmix.org


Мунч / Munch (2018) HDTVRip | FOX скачать торрент бесплатно

Дата: 1-05-2019, 11:00 | .torrent скачали: 0


Мунч / Munch (2018) HDTVRip | FOX
Мунч / Munch
Снималось в: Франция
Создали в: JLA Productions
Создали в: 2018
Категория жанра: драма, криминал
Время просмотра: 10х ~00: 51: 00
Главный режиссеры: Николас Гишто, Фридерик Берт

Актеры
Изабель Нанти, Люсьен Жан-Батист, Орельен Вик, Том Вилла, Палома Кокуан, Николас Карпентье, Джои Старр, Фанни Дюмон, Камилль Агиляр
Описание: Габриэль Мунчовски по прозвищу Мунч — юрист без страха и упрека. Справедливость она ставит превыше всего, даже превыше закона. Габриэль управляет юридической фирмой по уголовным делам, объединившись со своим другом и соратником Хьюбертом Белланжером. К ним обращаются клиенты со сложной историей, успевшие разочароваться в правосудии. Бесстрашная Мунч защищает невиновных людей, которым предписывают бесчеловечные преступления, включая убийство своих любимых и близких, изнасилование и похищение детей. Проливая свет на самые темные дела, Мунч нередко ставит себя под удар, но продолжает бороться с судебными ошибками, сломавшими не одну судьбу...

Перевод текста: Профессиональный (многоголосый, закадровый) | FOX
Субтитры: нет
Качество фильма: HDTVRip
Тип видео: AVI
Информация о видео кодек: DivX 5
Информация о звуке кодек: АС3
Информация о видео: 704x352 (2.000), 25.000 fps, XviD build 65 ~1 551 kbps avg
Информация о звуке №1: 48.0 kHz, AC3 Dolby Digital, 2/0 (L, R) ch, ~192 kbps | RUS
Информация о звуке №2: 48.0 kHz, AC3 Dolby Digital, 2/0 (L, R) ch, ~192 kbps | FRE
Дата премьеры (мир): 25 октября 2018

Релиз подготовил: miha2154
Media Info
General
Полное имя : 2x01 - Destins Croises. Partie 1 (Где встречаются дороги. Часть 1).avi
Формат : AVI
Формат/Информация : Audio Video Interleave
Размер файла : 703 Мбайт
Продолжительность : 50 м. 24 с.
Общий поток : 1950 Кбит/сек
Название фильма : Мунч. Сезон 2/Munch. Saison 2 (2018)
Программа кодирования : VirtualDubMod 1.5.10.2 (build 2540/release)
Библиотека кодирования : VirtualDubMod build 2540/release
Авторское право : miha2154
Видео
Идентификатор : 0
Формат : MPEG-4 Visual
Профиль формата : Advanced Simple@L5
Настройки формата : BVOP1/Custom Matrix
Параметр BVOP формата : 1
Параметр QPel формата : Нет
Параметр GMC формата : Без точки перехода
Параметр матрицы формата : Выборочная
Идентификатор кодека : DX50
Идентификатор кодека/Подсказка : DivX 5
Продолжительность : 50 м. 24 с.
Битрейт : 1551 Кбит/сек
Ширина : 704 пикселя
Высота : 352 пикселя
Соотношение сторон : 2, 000
Частота кадров : 25, 000 кадров/сек
Цветовое пространство : YUV
Субдискретизация насыщенности : 4: 2: 0
Битовая глубина : 8 бит
Тип развёртки : Прогрессивная
Метод сжатия : С потерями
Бит/(Пиксели*Кадры) : 0.250
Размер потока : 559 Мбайт (80%)
Библиотека кодирования : XviD 65
Аудио #1
Идентификатор : 1
Формат : AC-3
Формат/Информация : Audio Coding 3
Коммерческое название : Dolby Digital
Идентификатор кодека : 2000
Продолжительность : 50 м. 24 с.
Вид битрейта : Постоянный
Битрейт : 192 Кбит/сек
Каналы : 2 канала
Channel layout : L R
Частота : 48, 0 КГц
Частота кадров : 31, 250 кадров/сек (1536 SPF)
Битовая глубина : 16 бит
Метод сжатия : С потерями
Размер потока : 69, 2 Мбайт (10%)
Выравнивание : Разделение по промежуткам
Продолжительность промежутка : 40 мс. (1, 00 видеокадр)
Время предзагрузки промежутка : 500 мс.
Заголовок : Профессиональный (многоголосый, закадровый)
Аудио #2
Идентификатор : 2
Формат : AC-3
Формат/Информация : Audio Coding 3
Коммерческое название : Dolby Digital
Идентификатор кодека : 2000
Продолжительность : 50 м. 24 с.
Вид битрейта : Постоянный
Битрейт : 192 Кбит/сек
Каналы : 2 канала
Channel layout : L R
Частота : 48, 0 КГц
Частота кадров : 31, 250 кадров/сек (1536 SPF)
Битовая глубина : 16 бит
Метод сжатия : С потерями
Размер потока : 69, 2 Мбайт (10%)
Выравнивание : Разделение по промежуткам
Продолжительность промежутка : 40 мс. (1, 00 видеокадр)
Время предзагрузки промежутка : 500 мс.
Заголовок : Французский
Скриншоты

Залил: Zha-4k-e
Размер скачиваемого торрента: 6.86 GB (7370596352 Bytes)

Мунч/Munch (2018) HDTVRip | FOX
Рейтинг →
 (голосов: 1, оценка 5/5, голосовать можно 1 раз )

Другие торренты по теме:

  • Мунч / Munch (2016) HDTVRip | FOX


    • Комментарии (0):

      Информация

      Информация

        Посетители, находящиеся в группе Гости, не могут оставлять комментарии в данной новости.

        ↓ Меню




        ↓ Опрос

        А Вы добавили сайт в закладки?
        Да
        Не


        Top 10 за месяц (Фильмы)