.
Авторизация | Регистрация

Бесплатно скачать торрент фильмы, игры, музыка, книги, журналы

  • support: webmaster@servmix.org
» » Частные сыщики / Private Eyes (2017-2018) WEB-DLRip | Sony Channel скачать торрент бесплатно


    Частные сыщики / Private Eyes (2017-2018) WEB-DLRip | Sony Channel скачать торрент бесплатно

    Дата: 1-05-2019, 11:00 | .torrent скачали: 0


    Частные сыщики / Private Eyes (2017-2018) WEB-DLRip | Sony Channel
    Частные сыщики / Private Eyes
    Снималось в: Канада
    Создали в: Entertainment One
    Создали в: 2017-2018
    Категория жанра: драма, комедия, криминал, детектив
    Время просмотра: 18х ~00: 43: 00
    Главный режиссеры: Джейсон Пристли, Роберт Либерман, Гэйл Харви, Ли Роуз, Келли Макин, Джеймс Дженн

    Актеры
    Джейсон Пристли, Синди Сэмпсон, Бэрри Флэтмэн, Джордин Негри, Эннис Эсмер, Саманта Ван, Николь де Бур, Кле Беннетт, Саманта Ван
    Описание: Мэтт Шейд был успешным хоккеистом, которому пророчили большой успех и огромные достижения в мире спорта. Теперь он решил, что ему нужно заняться не спортом, а частным сыском, поэтому вместе с суровым и харизматичным сыщиком Энджи Эверетт решает основать агентство по расследованиям особо сложных дел. Ставки в новой профессии очень высоки. Главные герои пытаются понять сначала, что задумал преступник, а потом стараются взять негодяя с поличным. При этом Энджи и Мэтт — совершенно разные люди. Они пытаются перенять друг у друга лучшие качества, но вот отрицательные стороны нередко выводят героев из себя. В расследованиях одна ошибка может стоить очень дорого!

    Перевод текста: Профессиональный (многоголосый, закадровый) | Sony Channel
    Субтитры: нет
    Качество фильма: WEB-DLRip
    Тип видео: AVI
    Информация о видео кодек: DivX 5
    Информация о звуке кодек: АС3
    Информация о видео: 720x400 (16: 9), 23.976 fps, XviD build 65 ~1 354 kbps avg
    Информация о звуке №1: 48.0 kHz, AC3 Dolby Digital, 2/0 (L, R) ch, ~192 kbps | RUS
    Информация о звуке №2: 48.0 kHz, AC3 Dolby Digital, 2/0 (L, R) ch, ~192 kbps | ENG
    Дата премьеры (мир): 25 мая 2017

    Релиз подготовил: miha2154
    Media Info
    General
    Полное имя : 2x01 - Лишний круг (The Extra Mile).avi
    Формат : AVI
    Формат/Информация : Audio Video Interleave
    Размер файла : 552 Мбайт
    Продолжительность : 44 м. 4 с.
    Общий поток : 1752 Кбит/сек
    Название фильма : Частные сыщики. Сезон 2/Private Eyes. Season 2 (2017-18)
    Программа кодирования : VirtualDubMod 1.5.10.2 (build 2540/release)
    Библиотека кодирования : VirtualDubMod build 2540/release
    Авторское право : miha2154
    Видео
    Идентификатор : 0
    Формат : MPEG-4 Visual
    Профиль формата : Advanced Simple@L5
    Настройки формата : BVOP1/Custom Matrix
    Параметр BVOP формата : 1
    Параметр QPel формата : Нет
    Параметр GMC формата : Без точки перехода
    Параметр матрицы формата : Выборочная
    Идентификатор кодека : DX50
    Идентификатор кодека/Подсказка : DivX 5
    Продолжительность : 44 м. 4 с.
    Битрейт : 1354 Кбит/сек
    Ширина : 720 пикселей
    Высота : 400 пикселей
    Соотношение сторон : 16: 9
    Частота кадров : 23, 976 (24000/1001) кадра/сек
    Цветовое пространство : YUV
    Субдискретизация насыщенности : 4: 2: 0
    Битовая глубина : 8 бит
    Тип развёртки : Прогрессивная
    Метод сжатия : С потерями
    Бит/(Пиксели*Кадры) : 0.196
    Размер потока : 427 Мбайт (77%)
    Библиотека кодирования : XviD 65
    Аудио #1
    Идентификатор : 1
    Формат : AC-3
    Формат/Информация : Audio Coding 3
    Коммерческое название : Dolby Digital
    Идентификатор кодека : 2000
    Продолжительность : 44 м. 4 с.
    Вид битрейта : Постоянный
    Битрейт : 192 Кбит/сек
    Каналы : 2 канала
    Channel layout : L R
    Частота : 48, 0 КГц
    Частота кадров : 31, 250 кадров/сек (1536 SPF)
    Битовая глубина : 16 бит
    Метод сжатия : С потерями
    Размер потока : 60, 5 Мбайт (11%)
    Выравнивание : Разделение по промежуткам
    Продолжительность промежутка : 42 мс. (1, 00 видеокадр)
    Время предзагрузки промежутка : 500 мс.
    Заголовок : Профессиональный (многоголосый, закадровый) Sony
    Аудио #2
    Идентификатор : 2
    Формат : AC-3
    Формат/Информация : Audio Coding 3
    Коммерческое название : Dolby Digital
    Идентификатор кодека : 2000
    Продолжительность : 44 м. 4 с.
    Вид битрейта : Постоянный
    Битрейт : 192 Кбит/сек
    Каналы : 2 канала
    Channel layout : L R
    Частота : 48, 0 КГц
    Частота кадров : 31, 250 кадров/сек (1536 SPF)
    Битовая глубина : 16 бит
    Метод сжатия : С потерями
    Размер потока : 60, 5 Мбайт (11%)
    Выравнивание : Разделение по промежуткам
    Продолжительность промежутка : 42 мс. (1, 00 видеокадр)
    Время предзагрузки промежутка : 500 мс.
    Заголовок : Английский
    Скриншоты

    Залил: Zha-4k-e

    Онлайн видео Частные сыщики


    Размер скачиваемого торрента: 9.71 GB (10423363584 Bytes)

    Частные сыщики/Private Eyes (2017-2018) WEB-DLRip | Sony Channel
    Рейтинг →
     (голосов: 1, оценка 5/5, голосовать можно 1 раз )

    Другие торренты по теме:

  • Частные сыщики / Private Eyes (2016) HDTVRip | Baibako
  • Частные сыщики / Private Eyes (2017) HDTVRip 720p | SunshineStudio
  • Частные сыщики / Private Eyes (2017) HDTV 720p | IdeaFilm
  • Частные сыщики / Private Eyes (2017) HDTVRip | IdeaFilm
  • Частные сыщики / Private Eyes (2017) HDTVRip 720p | SunshineStudio
  • Частные сыщики / Private Eyes (2017-2018) WEB-DL 1080p | Sony, Baibako, IdeaFilm
  • Частные сыщики / Private Eyes (2016) WEB-DLRip | Sony Channel


    • Комментарии (0):

      Информация

      Информация

        Посетители, находящиеся в группе Гости, не могут оставлять комментарии в данной новости.

        ↓ Меню




        ↓ Опрос

        А Вы добавили сайт в закладки?
        Да
        Не


        Top 10 за месяц (Фильмы)