.
Авторизация | Регистрация

Бесплатно скачать торрент фильмы, игры, музыка, книги, журналы

  • support: webmaster@servmix.org
» » Заповедник (2018) WEB-DLRip | iTunes скачать торрент бесплатно


    Заповедник (2018) WEB-DLRip | iTunes скачать торрент бесплатно

    Дата: 1-05-2019, 11:00 | .torrent скачали: 0


    Заповедник (2018) WEB-DLRip | iTunes
    Детально о кино
    Русское название: Заповедник
    Создали в: 2018
    Категория жанра: Комедия
    Главный режиссер: Анна Матисон

    Актеры
    Сергей Безруков, Евгения Крегжде, Анна Михалкова, Гоша Куценко, Александр Семчев, Дмитрий Хрусталев, Виктор Бычков, Софья Евстигнеева, Ярослава Дегтярёва, Леонид Агутин
    Описание: Константин, автор песен и виртуозный гитарист, сбегает от накопившихся проблем в заповедник Михайловское. Костя давно лишился всех способов заработка, почти отчаялся быть услышанным и живет по инерции, часто налегая на алкоголь. Жена и дочь собираются уезжать в Канаду, а в голове бесконечно крутятся вопросы: что именно пошло не так? Как это исправить? Нужно ли вообще кому-то моё творчество, или я сам убедил себя в этом? Возможно, у Константина и достаточно сил, чтобы попытаться всё изменить, но он сильно сомневается, что есть, ради чего и ради кого стараться. Тем не менее, Заповедник — на то и Заповедник, чтобы собраться с мыслями, разбить минное поле собственной жизни на участки и приняться за работу.

    Снималось в: Россия
    Время просмотра: 01: 48: 12
    Перевод текста: Не требуется
    Файл
    Качество фильма: WEB-DLRip
    Тип видео: AVI
    Информация о видео: 704x288 (2.44: 1), 23.976 fps, XviD build 73 ~1534 kbps avg, 0.32 bit/pixel
    Информация о звуке: 48 kHz, AC3 Dolby Digital, 3/2 (L, C, R, l, r) + LFE ch, ~384 kbps - iTunes
    Субтитры: Нет
    Скриншоты
    MediaInfo
    Формат : AVI
    Формат/Информация : Audio Video Interleave
    Размер файла : 1, 46 Гбайт
    Продолжительность : 1 ч. 48 м.
    Общий поток : 1928 Кбит/сек
    Название фильма : Заповедник_2018_WEB-DLRip
    Программа кодирования : VirtualDubMod 1.5.10.3
    Библиотека кодирования : VirtualDubMod build 2550/release
    Авторское право : порошков
    Видео
    Идентификатор : 0
    Формат : MPEG-4 Visual
    Профиль формата : Advanced Simple@L5
    Настройки формата : BVOP1/Custom Matrix
    Параметр BVOP формата : 1
    Параметр QPel формата : Нет
    Параметр GMC формата : Без точки перехода
    Параметр матрицы формата : Выборочная
    Идентификатор кодека : XVID
    Идентификатор кодека/Подсказка : XviD
    Продолжительность : 1 ч. 48 м.
    Битрейт : 1534 Кбит/сек
    Ширина : 704 пикселя
    Высота : 288 пикселей
    Соотношение сторон : 2, 40: 1
    Частота кадров : 23, 976 (24000/1001) кадра/сек
    Цветовое пространство : YUV
    Субдискретизация насыщенности : 4: 2: 0
    Битовая глубина : 8 бит
    Тип развёртки : Прогрессивная
    Метод сжатия : С потерями
    Бит/(Пиксели*Кадры) : 0.316
    Размер потока : 1, 16 Гбайт (80%)
    Библиотека кодирования : XviD 73
    Аудио
    Идентификатор : 1
    Формат : AC-3
    Формат/Информация : Audio Coding 3
    Коммерческое название : Dolby Digital
    Идентификатор кодека : 2000
    Продолжительность : 1 ч. 48 м.
    Вид битрейта : Постоянный
    Битрейт : 384 Кбит/сек
    Каналы : 6 каналов
    ChannelLayout : L R C LFE Ls Rs
    Частота : 48, 0 КГц
    Частота кадров : 31, 250 кадров/сек (1536 SPF)
    Битовая глубина : 16 бит
    Метод сжатия : С потерями
    Размер потока : 297 Мбайт (20%)
    Выравнивание : Разделение по промежуткам
    Продолжительность промежутка : 42 мс. (1, 00 видеокадр)
    Время предзагрузки промежутка : 500 мс.
    Язык : Русский

    Залил: Stallone

    Онлайн видео Заповедник (2018) WEB-DLRip


    Размер скачиваемого торрента: 1.46 GB (1564260400 Bytes)

    Заповедник (2018) WEB-DLRip | iTunes
    Рейтинг →
     (голосов: 1, оценка 3/5, голосовать можно 1 раз )

    Другие торренты по теме:

  • Заповедник / Preservation (2014) WEB-DLRip-AVC | L1 скачать через торрент бесплатно
  • Заповедник / Preservation (2014) WEB-DLRip | L 1


    • Комментарии (0):

      Информация

      Информация

        Посетители, находящиеся в группе Гости, не могут оставлять комментарии в данной новости.

        ↓ Меню




        ↓ Опрос

        А Вы добавили сайт в закладки?
        Да
        Не


        Top 10 за месяц (Фильмы)