.
Авторизация | Регистрация

Бесплатно скачать торрент фильмы, игры, музыка, книги, журналы

  • support: webmaster@servmix.org
» » Карточный домик / House of Cards (1993) DVDRip | P2 скачать торрент бесплатно


    Карточный домик / House of Cards (1993) DVDRip | P2 скачать торрент бесплатно

    Дата: 1-05-2019, 11:00 | .torrent скачали: 0


    Карточный домик / House of Cards (1993) DVDRip | P2
    Детально о кино
    Русское название: Карточный домик
    Русское название в мировом прокате: House of Cards
    Создали в: 1993
    Категория жанра: драма
    Главный режиссер: Майкл Лессэк/Michael Lessac

    Актеры
    Кэтлин Тернер, Томми Ли Джонс, Аша Менина, Шило Стронг, Эстер Роулл, Парк Оверолл, Майкл Хорс, Энни Питониак, Хоакин Мартинез, Жаклин Кассел

    Сюжет фильма

    Архитектор Рут вместе со своими двумя детьми — 6-летней Салли и 12-летним Майклом, отец которых погиб в Мексике в археологической экспедиции, возвращается домой в Северную Каролину.
    Для того, чтобы помочь вернуться в реальный мир Салли, после смерти отца внезапно переставшей разговаривать, Рут приглашает доктора-психиатра Джейкоба, который обнаруживает, что у 6-летней маленькой девочки проснулись дремавшие способности экстрасенса…

    Снималось в: Италия, США
    Время просмотра: 01: 49: 01
    Перевод текста: Профессиональный двухголосый закадровый - (Видеофильм)
    Файл
    Кодек для видео: XviD
    Качество фильма: DVDRip Исходник
    Информация о видео: 688x512 (1.34: 1), 23.976 fps, XviD build 65 ~1714 kbps avg, 0.20 bit/pixel
    Информация о звуке: 48 kHz, AC3 Dolby Digital, 2/0 (L, R) ch, ~192 kbps Rus
    отдельно:
    Информация о звуке 2: 48 kHz, AC3 Dolby Digital, 2/0 (L, R) ch, ~192 kbps Eng
    Субтитры: нет
    MediaInfo

    Общее
    Полное имя : F: House of Cards (1993) DVDRip.avi
    Формат : AVI
    Формат/Информация : Audio Video Interleave
    Размер файла : 1, 46 Гбайт
    Продолжительность : 1 ч. 49 м.
    Общий поток : 1916 Кбит/сек
    Название фильма : House of Cards (1993) DVDRip
    Режиссёр : Maksmet
    Программа кодирования : VirtualDubModRus 1.5.10.2 (build 2542/release)
    Формат оригинала/Имя : Movie
    Примечание : 30.03.2017
    Видео
    Идентификатор : 0
    Формат : MPEG-4 Visual
    Профиль формата : Advanced Simple@L5
    Параметр BVOP формата : 1
    Параметр QPel формата : Нет
    Параметр GMC формата : Без точки перехода
    Параметр матрицы формата : Выборочная
    Идентификатор кодека : XVID
    Идентификатор кодека/Подсказка : XviD
    Продолжительность : 1 ч. 49 м.
    Битрейт : 1714 Кбит/сек
    Ширина : 688 пикселей
    Высота : 512 пикселей
    Соотношение сторон : 4: 3
    Частота кадров : 23, 976 (24000/1001) кадра/сек
    Цветовое пространство : YUV
    Субдискретизация насыщенности : 4: 2: 0
    Битовая глубина : 8 бит
    Тип развёртки : Прогрессивная
    Метод сжатия : С потерями
    Бит/(Пиксели*Кадры) : 0.203
    Размер потока : 1, 31 Гбайт (89%)
    Библиотека кодирования : XviD 65
    Аудио
    Идентификатор : 1
    Формат : AC-3
    Формат/Информация : Audio Coding 3
    Расширение режима : CM (complete main)
    Параметр Endianness формата : Big
    Идентификатор кодека : 2000
    Продолжительность : 1 ч. 49 м.
    Вид битрейта : Постоянный
    Битрейт : 192 Кбит/сек
    Каналы : 2 канала
    Расположение каналов : Front: L R
    Частота : 48, 0 КГц
    Частота кадров : 31, 250 кадров/сек (1536 spf)
    Метод сжатия : С потерями
    Размер потока : 150 Мбайт (10%)
    Выравнивание : Разделение по промежуткам
    Продолжительность промежутка : 42 мс. (1, 00 видеокадр)
    Время предзагрузки промежутка : 500 мс.

    Скриншот c названием фильма



    Скриншоты



    Релиз подготовил:
    Залил: DiMk@™

    Онлайн видео Карточный домик


    Размер скачиваемого торрента: 1.61 GB (1725110784 Bytes)

    Карточный домик/House of Cards (1993) DVDRip | P2
    Рейтинг →
     (голосов: 1, оценка 3/5, голосовать можно 1 раз )

    Другие торренты по теме:

  • Карточный домик / House of Cards (2013) WEBRip | Первый Канал
  • OST - Карточный домик / House of Cards (2013) MP3
  • Карточный Домик / House of Cards (2013) HDRip | Первый канал
  • Карточный домик / House of Cards (2013) HDRip от Scarabey | Первый канал скачать через торрент бесплатно
  • Карточный Домик / House of Cards (2014) WEBRip | Paradox скачать через торрент бесплатно
  • Карточный Домик / House of Cards (2014) WEBRip 1080p | Paradox скачать через торрент бесплатно
  • Карточный Домик / House of Cards (2014) WEBRip 720p | NewStudio
  • Карточный Домик / House of Cards (2014) WEBRip | NewStudio


    • Комментарии (0):

      Информация

      Информация

        Посетители, находящиеся в группе Гости, не могут оставлять комментарии в данной новости.

        ↓ Меню




        ↓ Опрос

        А Вы добавили сайт в закладки?
        Да
        Не


        Top 10 за месяц (Фильмы)