.
Авторизация | Регистрация

Бесплатно скачать торрент фильмы, игры, музыка, книги, журналы

  • support: webmaster@servmix.org
» » Связанные насмерть / Dead Ringers (1988) BDRemux 1080p | P, A скачать торрент бесплатно


    Связанные насмерть / Dead Ringers (1988) BDRemux 1080p | P, A скачать торрент бесплатно

    Дата: 1-05-2019, 11:00 | .torrent скачали: 0


    Связанные насмерть/Dead Ringers (1988)
    Связанные насмерть / Dead Ringers (1988) BDRemux 1080p | P, A
    Два тела. Два разума. Одна душа
    Детально о кино
    Русское название: Связанные насмерть
    Русское название в мировом прокате: Dead Ringers
    Создали в: 1988
    Категория жанра: Триллер, драма
    Главный режиссер: Дэвид Кроненберг / David Cronenberg

    Актеры
    Джереми Айронс, Женевьев Бюжо, Хайди фон Паллеске, Барбара Гордон, Ширли Дуглас, Стивен Лэк, Ник Николс, Линн Кормэк, Дамир Андрей, Мириам Ньюхаус

    Сюжет фильма
    Два тела. Два разума. Одна душа. Братья Мэнтл — абсолютно идентичные близнецы. Оба они врачи и работают вместе. Эллиот искусней Бева в деле соблазнения женщин и охотно дарит брату своих любовниц, которые и не подозревают о подмене. Но когда их клинику посещает кинозвезда Клэр, застенчивый Бев влюбляется в нее первым. Клэр, сама того не ведая, начинает встречаться с обоими братьями. Смогут ли они поделить любимую женщину или, пытаясь найти утешение в наркотиках и алкоголе, погрузятся в пучину безумия?

    Снималось в: Канада, США | Mantle Clinic II, Morgan Creek Productions, Telefilm Canada
    Время просмотра: 01: 50: 59
    Перевод текста 1: Профессиональный (многоголосый закадровый)
    Перевод текста 2: Авторский (одноголосый закадровый) А. Михалев
    Тип релиза: BDRemux 1080p Dead Ringers 1988 2in1 1080p Blu-ray AVC DTS-HD MA 5.1-Karloff
    Контейнер: MKV
    Информация о видео: MPEG-4 AVC/35000 kbps/1920x1080/23, 976 fps/16: 9/High Profile 4.1
    Информация о звуке 1: Russian AC3/2.0/48 kHz/192 kbps/16 bits |MVO|
    Информация о звуке 2: Russian AC3/2.0/48 kHz/192 kbps/16 bits |А. Михалев|
    Информация о звуке 3: English DTS-HD Master Audio/5.1/48 kHz/4014 kbps/24-bit (DTS Core: 5.1/48 kHz/1509 kbps/24-bit) |original|
    Информация о звуке 4: English DTS-HD Master Audio/2.0/48 kHz/2003 kbps/24-bit (DTS Core: 2.0/48 kHz/1509 kbps/24-bit) |original|
    Информация о звуке 5: English DTS-HD Master Audio/2.0/48 kHz/1559 kbps/24-bit (DTS Core: 2.0/48 kHz/1509 kbps/24-bit) |Commentary With Writer William Beard, Author Of The Artist As Monster: The Cinema Of David Cronenberg|
    Информация о звуке 6: English DTS-HD Master Audio/2.0/48 kHz/1557 kbps/24-bit (DTS Core: 2.0/48 kHz/1509 kbps/24-bit) |Commentary With Actor Jeremy Irons|
    Субтитры: русские, английские (full, SDH)
    MediaInfo

    Общее
    Уникальный идентификатор : 201647035974588690439172764091175713179 (0x97B3CE755842AE4C8BA58FD1E034B99B)
    Полное имя : G: HDСвязанные насмерть.1988.Blu-Ray.Remux.(1080p).mkv
    Формат : Matroska
    Версия формата : Version 4/Version 2
    Размер файла : 35, 1 Гбайт
    Продолжительность : 1 ч. 55 м.
    Общий поток : 43, 5 Мбит/сек
    Дата кодирования : UTC 2017-05-02 18: 06: 00
    Программа кодирования : mkvmerge v11.0.0 (;Alive;) 64bit
    Библиотека кодирования : libebml v1.3.4 + libmatroska v1.4.5
    Attachments : poster.jpg
    Видео
    Идентификатор : 1
    Формат : AVC
    Формат/Информация : Advanced Video Codec
    Профиль формата : High@L4.1
    Параметр CABAC формата : Да
    Параметр ReFrames формата : 4 кадра
    Идентификатор кодека : V_MPEG4/ISO/AVC
    Продолжительность : 1 ч. 55 м.
    Вид битрейта : Постоянный
    Битрейт : 35, 0 Мбит/сек
    Ширина : 1920 пикселей
    Высота : 1080 пикселей
    Соотношение сторон : 16: 9
    Режим частоты кадров : Постоянный
    Частота кадров : 23, 976 (24000/1001) кадра/сек
    Цветовое пространство : YUV
    Субдискретизация насыщенности : 4: 2: 0
    Битовая глубина : 8 бит
    Тип развёртки : Прогрессивная
    Бит/(Пиксели*Кадры) : 0.704
    Размер потока : 27, 4 Гбайт (78%)
    Default : Да
    Forced : Нет
    Аудио #1
    Идентификатор : 2
    Формат : AC-3
    Формат/Информация : Audio Coding 3
    Параметр Endianness формата : Big
    Идентификатор кодека : A_AC3
    Продолжительность : 1 ч. 55 м.
    Вид битрейта : Постоянный
    Битрейт : 192 Кбит/сек
    Каналы : 2 канала
    Расположение каналов : Front: L R
    Частота : 48, 0 КГц
    Частота кадров : 31, 250 кадров/сек (1536 spf)
    Битовая глубина : 16 бит
    Метод сжатия : С потерями
    Размер потока : 159 Мбайт (0%)
    Заголовок : MVO
    Язык : Russian
    ServiceKind/String : Complete Main
    Default : Да
    Forced : Нет
    Аудио #2
    Идентификатор : 3
    Формат : AC-3
    Формат/Информация : Audio Coding 3
    Параметр Endianness формата : Big
    Идентификатор кодека : A_AC3
    Продолжительность : 1 ч. 55 м.
    Вид битрейта : Постоянный
    Битрейт : 192 Кбит/сек
    Каналы : 2 канала
    Расположение каналов : Front: L R
    Частота : 48, 0 КГц
    Частота кадров : 31, 250 кадров/сек (1536 spf)
    Битовая глубина : 16 бит
    Метод сжатия : С потерями
    Размер потока : 158 Мбайт (0%)
    Заголовок : А. Михалев
    Язык : Russian
    ServiceKind/String : Complete Main
    Default : Нет
    Forced : Нет
    Аудио #3
    Идентификатор : 4
    Формат : DTS
    Формат/Информация : Digital Theater Systems
    Профиль формата : MA/Core
    Режим : 16
    Параметр Endianness формата : Big
    Идентификатор кодека : A_DTS
    Продолжительность : 1 ч. 55 м.
    Вид битрейта : Переменный/Постоянный
    Битрейт : 4014 Кбит/сек/1509 Кбит/сек
    Каналы : 6 каналов
    Расположение каналов : Front: L C R, Side: L R, LFE
    Частота : 48, 0 КГц
    Частота кадров : 93, 750 кадра/сек (512 spf)
    Битовая глубина : 24 бит
    Метод сжатия : Без потерь/Lossy
    Размер потока : 3, 24 Гбайт (9%)
    Язык : English
    Default : Нет
    Forced : Нет
    Аудио #4
    Идентификатор : 5
    Формат : DTS
    Формат/Информация : Digital Theater Systems
    Профиль формата : MA/Core
    Режим : 16
    Параметр Endianness формата : Big
    Идентификатор кодека : A_DTS
    Продолжительность : 1 ч. 55 м.
    Вид битрейта : Переменный/Постоянный
    Битрейт : 2003 Кбит/сек/1509 Кбит/сек
    Каналы : 2 канала
    Расположение каналов : Front: L R
    Частота : 48, 0 КГц
    Частота кадров : 93, 750 кадра/сек (512 spf)
    Битовая глубина : 24 бит
    Метод сжатия : Без потерь/Lossy
    Размер потока : 1, 62 Гбайт (5%)
    Язык : English
    Default : Нет
    Forced : Нет
    Аудио #5
    Идентификатор : 6
    Формат : DTS
    Формат/Информация : Digital Theater Systems
    Профиль формата : MA/Core
    Режим : 16
    Параметр Endianness формата : Big
    Идентификатор кодека : A_DTS
    Продолжительность : 1 ч. 55 м.
    Вид битрейта : Переменный/Постоянный
    Битрейт : 1536 Кбит/сек/1509 Кбит/сек
    Каналы : 2 канала
    Расположение каналов : Front: L R
    Частота : 48, 0 КГц
    Частота кадров : 93, 750 кадра/сек (512 spf)
    Битовая глубина : 24 бит
    Метод сжатия : Без потерь/Lossy
    Размер потока : 1, 26 Гбайт (4%)
    Заголовок : Commentary With Writer William Beard, Author Of The Artist As Monster: The Cinema Of David Cronenberg
    Язык : English
    Default : Нет
    Forced : Нет
    Аудио #6
    Идентификатор : 7
    Формат : DTS
    Формат/Информация : Digital Theater Systems
    Профиль формата : MA/Core
    Режим : 16
    Параметр Endianness формата : Big
    Идентификатор кодека : A_DTS
    Продолжительность : 1 ч. 55 м.
    Вид битрейта : Переменный/Постоянный
    Битрейт : 1536 Кбит/сек/1509 Кбит/сек
    Каналы : 2 канала
    Расположение каналов : Front: L R
    Частота : 48, 0 КГц
    Частота кадров : 93, 750 кадра/сек (512 spf)
    Битовая глубина : 24 бит
    Метод сжатия : Без потерь/Lossy
    Размер потока : 1, 26 Гбайт (4%)
    Заголовок : Commentary With Actor Jeremy Irons
    Язык : English
    Default : Нет
    Forced : Нет
    Текст #1
    Идентификатор : 8
    Формат : UTF-8
    Идентификатор кодека : S_TEXT/UTF8
    Идентификатор кодека/Информация : UTF-8 Plain Text
    Продолжительность : 1 ч. 50 м.
    Битрейт : 65 бит/сек
    ElementCount : 845
    Размер потока : 53, 2 Кбайт (0%)
    Язык : Russian
    Default : Нет
    Forced : Нет
    Текст #2
    Идентификатор : 9
    Формат : UTF-8
    Идентификатор кодека : S_TEXT/UTF8
    Идентификатор кодека/Информация : UTF-8 Plain Text
    Продолжительность : 1 ч. 48 м.
    Битрейт : 46 бит/сек
    ElementCount : 1396
    Размер потока : 37, 2 Кбайт (0%)
    Заголовок : full
    Язык : English
    Default : Нет
    Forced : Нет
    Текст #3
    Идентификатор : 10
    Формат : UTF-8
    Идентификатор кодека : S_TEXT/UTF8
    Идентификатор кодека/Информация : UTF-8 Plain Text
    Продолжительность : 1 ч. 52 м.
    Битрейт : 47 бит/сек
    ElementCount : 1516
    Размер потока : 39, 2 Кбайт (0%)
    Заголовок : SDH
    Язык : English
    Default : Нет
    Forced : Нет
    Меню
    00: 00: 00.000 : en: Opening Credits
    00: 02: 16.367 : en: Toronto 1954: The Young Twins
    00: 04: 10.767 : en: Cambridge 1967: The Mantle Retractor
    00: 06: 35.534 : en: Toronto 1988: The Claire Niveau?
    00: 08: 29.667 : en: Let;s Take Another Look
    00: 10: 42.667 : en: You;ve Got to Try the Movie Star
    00: 12: 54.067 : en: I Need to Be Punished
    00: 16: 39.935 : en: Bedside Manners
    00: 19: 02.569 : en: Doctor, You;ve Cured Me
    00: 21: 43.437 : en: I Want to Keep It...For Myself
    00: 22: 58.937 : en: We Don;t Do Husbands
    00: 24: 55.937 : en: Side Effects
    00: 27: 41.838 : en: Unknown Territory
    00: 29: 18.706 : en: Subtly Schizophrenic
    00: 32: 12.473 : en: ...There Are Two of Them?
    00: 33: 48.740 : en: When Can I Meet Him?
    00: 36: 41.507 : en: The Confrontation
    00: 40: 14.774 : en: The Feldman Award
    00: 44: 49.907 : en: A Sleepless Night
    00: 46: 05.907 : en: The Reunion with Claire
    00: 49: 22.040 : en: Bev;s Nightmare
    00: 51: 07.807 : en: Special Order
    00: 52: 46.807 : en: Too Many Sleepers
    00: 55: 26.807 : en: Ellie Visits the Set
    00: 58: 44.807 : en: Separation Anxiety
    01: 00: 27.341 : en: Crank Call
    01: 03: 25.341 : en: I;ve Been Hiding from You
    01: 05: 52.108 : en: In the Still of the Night
    01: 11: 20.608 : en: Detox Program
    01: 12: 57.608 : en: Solid Gold
    01: 15: 36.741 : en: Instruments for Operating on Mutant Women
    01: 17: 47.741 : en: I;ve Got to Slow Everything Down
    01: 21: 12.642 : en: Easing Into Pure Research
    01: 24: 53.009 : en: Chang Eng
    01: 27: 04.910 : en: Getting Synchronized
    01: 30: 43.410 : en: Claire Returns
    01: 34: 24.044 : en: Artistic License
    01: 36: 56.311 : en: Tell Me About These Tools
    01: 39: 14.444 : en: Welcome Home, Kid
    01: 42: 57.211 : en: Separation Can Be a Terrifying Thing
    01: 46: 39.211 : en: Union
    01: 52: 05.978 : en: End Credits

    Скриншоты




    Дополнительно

    Цитата Кто-тописал:
    Дорожки №1, 2 взяты с этой раздачиthx: tеko : wink:

    Цитата Кто-тописал:
    Оригинальная дорога оставлена в 5.1 и 2.0.
    5.1 выглядит так
    Осторожно - спойлер!



    Сравнение

    1080p (этот релиз) VS 1080i











    Залил: DiMk@™

    Онлайн видео Связанные насмерть


    Размер скачиваемого торрента: 35.12 GB (37706027114 Bytes)

    Связанные насмерть/Dead Ringers (1988) BDRemux 1080p | P, A
    Рейтинг →
     (голосов: 1, оценка 5/5, голосовать можно 1 раз )

    Другие торренты по теме:

  • Связанные насмерть / Одна судьба на двоих / Cкованные намертво / Dead Ringers (1988) HDRip от Scarabey | P
  • Связанные насмерть / Dead Ringers (1988) BDRip от HQ-ViDEO


    • Комментарии (0):

      Информация

      Информация

        Посетители, находящиеся в группе Гости, не могут оставлять комментарии в данной новости.

        ↓ Меню




        ↓ Опрос

        А Вы добавили сайт в закладки?
        Да
        Не


        Top 10 за месяц (Фильмы)