.
Авторизация | Регистрация

Бесплатно скачать торрент фильмы, игры, музыка, книги, журналы

  • support: webmaster@servmix.org
» » Семья по-быстрому / Instant Family (2018) BDRip 1080p от селезень | Лицензия скачать торрент бесплатно


    Семья по-быстрому / Instant Family (2018) BDRip 1080p от селезень | Лицензия скачать торрент бесплатно

    Дата: 1-05-2019, 11:00 | .torrent скачали: 0


    Семья по-быстрому / Instant Family (2018) BDRip 1080p от селезень | Лицензия
    Детально о кино
    Русское название: Семья по-быстрому
    Русское название в мировом прокате: Instant Family
    Создали в: 2018
    Категория жанра: Драма, комедия
    Главный режиссер: Шон Андерс

    Актеры
    Марк Уолберг, Роуз Бирн, Изабела Монер, Густаво Куирос мл., Джулианна Гамиз, Октавия Спенсер, Тиг Нотаро, Том Сегура, Эллин Рэйчел, Бритт Рентшлер

    О фильме: Усыновляя трех детей, бездетная супружеская пара не представляла, с каким количеством проблем им придется столкнуться.
    Снималось в: США
    Киностудия: Paramount Pictures
    Время просмотра: 01: 58: 05
    Перевод текста: Дублированный | Лицензия
    Качество фильма: BDRip 1080p
    Информация о видео: MPEG-4 AVC, 1920x800, 15.8 Mbit/s, 23.976 fps
    Информация о звуке:
    Информация о звуке #01: 48 kHz, AC3, 5.1, 640 Kbps | Лицензия | RUS|
    Информация о звуке #02: 48 kHz, AC3, 5.1, 640 Kbps | Оригинал | ENG|
    Субтитры: Русские (Forced, full), английские

    MI
    General
    Unique ID : 318629640031616707109753505810255279328 (0xEFB5D6243FD76A86125163BC65E974E0)
    Complete name : D: Video111Instant.Family.2018.BDRip.1080p.seleZen.mkv
    Format : Matroska
    Format version : Version 4
    File size : 14.1 GiB
    Duration : 1 h 58 min
    Overall bit rate : 17.1 Mb/s
    Movie name : Instant Family 2018 from селезень
    Encoded date : UTC 2019-04-30 07: 09: 01
    Writing application : mkvmerge v32.0.0 (;Astral Progressions;) 64-bit
    Writing library : libebml v1.3.7 + libmatroska v1.5.0
    Video
    ID : 1
    Format : AVC
    Format/Info : Advanced Video Codec
    Format profile : High@L4.1
    Format settings : CABAC/5 Ref Frames
    Format settings, CABAC : Yes
    Format settings, Reference : 5 frames
    Codec ID : V_MPEG4/ISO/AVC
    Duration : 1 h 58 min
    Bit rate : 15.8 Mb/s
    Width : 1 920 pixels
    Height : 800 pixels
    Display aspect ratio : 2.40: 1
    Frame rate mode : Constant
    Frame rate : 23.976 (24000/1001) FPS
    Color space : YUV
    Chroma subsampling : 4: 2: 0
    Bit depth : 8 bits
    Scan type : Progressive
    Bits/(Pixel*Frame) : 0.430
    Stream size : 13.1 GiB (93%)
    Title : playHD
    Writing library : x264 core 155 r2867+82 a249126 t_mod_Custom_2 8-bit@all X86_64
    Encoding settings : cabac=1/ref=5/deblock=1: -3: -3/analyse=0x3: 0x133/me=umh/subme=10/psy=1/fade_compensate=0.00/psy_rd=1.03: 0.01/mixed_ref=1/me_range=64/chroma_me=1/trellis=2/8x8dct=1/cqm=0/deadzone=21, 11/fast_pskip=0/chroma_qp_offset=-3/threads=24/lookahead_threads=2/sliced_threads=0/nr=0/decimate=0/interlaced=0/bluray_compat=0/constrained_intra=0/fgo=0/bframes=6/b_pyramid=2/b_adapt=2/b_bias=0/direct=3/weightb=1/open_gop=0/weightp=2/keyint=250/keyint_min=23/scenecut=40/intra_refresh=0/rc_lookahead=60/rc=crf/mbtree=0/crf=15.9000/qcomp=0.60/qpmin=0: 0: 0/qpmax=69: 69: 69/qpstep=4/vbv_maxrate=62500/vbv_bufsize=78125/crf_max=0.0/nal_hrd=none/filler=0/ip_ratio=1.35/pb_ratio=1.25/aq=3: 0.85/aq-sensitivity=10.00/aq-factor=1.00: 1.00: 1.00/aq2=0/aq3=0
    Language : English
    Default : Yes
    Forced : No
    Audio #1
    ID : 2
    Format : AC-3
    Format/Info : Audio Coding 3
    Commercial name : Dolby Digital
    Codec ID : A_AC3
    Duration : 1 h 58 min
    Bit rate mode : Constant
    Bit rate : 640 kb/s
    Channel(s) : 6 channels
    Channel layout : L R C LFE Ls Rs
    Sampling rate : 48.0 kHz
    Frame rate : 31.250 FPS (1536 SPF)
    Bit depth : 16 bits
    Compression mode : Lossy
    Stream size : 541 MiB (4%)
    Title : Dub License
    Language : Russian
    Service kind : Complete Main
    Default : Yes
    Forced : Yes
    Audio #2
    ID : 3
    Format : AC-3
    Format/Info : Audio Coding 3
    Commercial name : Dolby Digital
    Codec ID : A_AC3
    Duration : 1 h 58 min
    Bit rate mode : Constant
    Bit rate : 640 kb/s
    Channel(s) : 6 channels
    Channel layout : L R C LFE Ls Rs
    Sampling rate : 48.0 kHz
    Frame rate : 31.250 FPS (1536 SPF)
    Bit depth : 16 bits
    Compression mode : Lossy
    Stream size : 541 MiB (4%)
    Title : Original
    Language : English
    Service kind : Complete Main
    Default : No
    Forced : No
    Text #1
    ID : 4
    Format : UTF-8
    Codec ID : S_TEXT/UTF8
    Codec ID/Info : UTF-8 Plain Text
    Duration : 1 h 57 min
    Bit rate : 1 b/s
    Count of elements : 25
    Stream size : 1.31 KiB (0%)
    Title : Forced
    Language : Russian
    Default : Yes
    Forced : Yes
    Text #2
    ID : 5
    Format : UTF-8
    Codec ID : S_TEXT/UTF8
    Codec ID/Info : UTF-8 Plain Text
    Duration : 1 h 57 min
    Bit rate : 125 b/s
    Count of elements : 1841
    Stream size : 108 KiB (0%)
    Title : Full
    Language : Russian
    Default : No
    Forced : No
    Text #3
    ID : 6
    Format : UTF-8
    Codec ID : S_TEXT/UTF8
    Codec ID/Info : UTF-8 Plain Text
    Duration : 1 h 52 min
    Bit rate : 100 b/s
    Count of elements : 2242
    Stream size : 82.7 KiB (0%)
    Title : Full
    Language : English
    Default : No
    Forced : No
    Text #4
    ID : 7
    Format : UTF-8
    Codec ID : S_TEXT/UTF8
    Codec ID/Info : UTF-8 Plain Text
    Duration : 1 h 57 min
    Bit rate : 100 b/s
    Count of elements : 2365
    Stream size : 86.5 KiB (0%)
    Title : SDH
    Language : English
    Default : No
    Forced : No
    Text #5
    ID : 8
    Format : UTF-8
    Codec ID : S_TEXT/UTF8
    Codec ID/Info : UTF-8 Plain Text
    Duration : 1 h 57 min
    Bit rate : 109 b/s
    Count of elements : 2366
    Stream size : 94.6 KiB (0%)
    Title : SDH Colored
    Language : English
    Default : No
    Forced : No
    Menu
    00: 00: 00.000 : en: 00: 00: 00.000
    00: 07: 54.724 : en: 00: 07: 54.724
    00: 13: 08.621 : en: 00: 13: 08.621
    00: 24: 59.540 : en: 00: 24: 59.540
    00: 32: 26.236 : en: 00: 32: 26.236
    00: 37: 12.897 : en: 00: 37: 12.897
    00: 44: 43.848 : en: 00: 44: 43.848
    00: 50: 12.468 : en: 00: 50: 12.468
    00: 57: 41.249 : en: 00: 57: 41.249
    01: 02: 31.831 : en: 01: 02: 31.831
    01: 08: 50.752 : en: 01: 08: 50.752
    01: 15: 25.855 : en: 01: 15: 25.855
    01: 23: 04.688 : en: 01: 23: 04.688
    01: 28: 42.567 : en: 01: 28: 42.567
    01: 37: 53.993 : en: 01: 37: 53.993
    01: 52: 54.434 : en: 01: 52: 54.434

    Релиз подготовил:


    Онлайн видео Семья по-быстрому


    Размер скачиваемого торрента: 14.12 GB (15166151067 Bytes)

    Семья по-быстрому/Instant Family (2018) BDRip 1080p от селезень | Лицензия
    Рейтинг →
     (голосов: 1, оценка 3/5, голосовать можно 1 раз )

    Другие торренты по теме:

  • Семья по-быстрому / Instant Family (2018) BDRip от MegaPeer | HDrezka Studio
  • Семья по-быстрому / Instant Family (2018) BDRip от Dalemake | HDrezka Studio
  • Семья по-быстрому / Instant Family (2018) BDRip-AVC от OlLanDGroup | HDRezka Studio
  • Семья по-быстрому / Instant Family (2018) HDRip от Generalfilm | КПК | HDRezka Studio
  • Семья по-быстрому / Instant Family (2018) HDRip от Scarabey | HDRezka Studio
  • Семья по-быстрому / Instant Family (2018) BDRemux 1080p | HDRezka Studio
  • Семья по-быстрому / Instant Family (2018) BDRip 1080p | HDRezka Studio
  • Семья по-быстрому / Instant Family (2018) BDRip 720p от k.e.n MegaPeer | HDRezka Studio


    • Комментарии (0):

      Информация

      Информация

        Посетители, находящиеся в группе Гости, не могут оставлять комментарии в данной новости.

        ↓ Меню




        ↓ Опрос

        А Вы добавили сайт в закладки?
        Да
        Не


        Top 10 за месяц (Фильмы)