.
Авторизация | Регистрация

Бесплатно скачать торрент фильмы, игры, музыка, книги, журналы

  • support: webmaster@servmix.org
» » Хроники хищных городов / Mortal Engines (2018) UHD BDRemux 2160p от ExKinoRay | 4K | HDR | Dolby Vision | Лицензия скачать торрент бесплатно


    Хроники хищных городов / Mortal Engines (2018) UHD BDRemux 2160p от ExKinoRay | 4K | HDR | Dolby Vision | Лицензия скачать торрент бесплатно

    Дата: 1-05-2019, 11:00 | .torrent скачали: 0


    Хроники хищных городов / Mortal Engines (2018) UHD BDRemux 2160p от ExKinoRay | 4K | HDR | Dolby Vision | Лицензия
    Mortal Engines
    Хроники хищных городов
    Some scars never heal


    Русское название: Хроники хищных городов
    Русское название в мировом прокате: Mortal Engines
    Создали в: 2018
    Категория жанра: Фантастика, фэнтези, боевик, триллер, приключения
    Снималось в: Новая Зеландия, США, Media Rights Capital (MRC), Scholastic Productions, Silvertongue Films
    Главный режиссер: Кристиан Риверс

    Актеры
    Гера Хилмарсдоттир, Роберт Шиэн, Хьюго Уивинг, Джихе, Ронан Рафтери, Лейла Джордж, Патрик Мэлахайд, Стивен Лэнг, Колин Сэлмон, Марк Митчинсон, Меник Гунератне, Реге Пейдж, Фрэнки Адамс, Лейфур Сигурдарсон, Кан Уэст, Эндрю Лииз, Ки Чан, Сара Пирс, Марк Хэдлоу, Карен Писториус, Поппи Маклеод, Джоэл Тобек, Йосон Ан
    Время просмотра: 02: 08: 21
    Перевод текста: Дублированный | Лицензия

    Описание фильма

    Прошли тысячелетия после того, как мир настиг апокалипсис. Человечество адаптировалось и теперь живет по новым правилам. Гигантские движущиеся мегаполисы рассекают пустоши и поглощают маленькие города ради ресурсов. Том Нэтсуорти из нижнего уровня великого Лондона оказывается в смертельной опасности, когда на его пути появляется скрывающаяся от закона бунтарка Эстер Шоу. Они не должны были встретиться, но им суждено изменить будущее.


    Файл
    Контейнер: MP4
    Качество фильма: Blu-Ray Remux (2160p)
    Информация о видео: HEVC HDR, 62.2 Mбит/с, 3840x2160, 23.976 кадр/с
    Информация о звуке: Russian/Dolby Digital Audio/5.1/48 kHz/640 kbps
    Субтитры: Русские(форс)
    Скриншоты




    MI:
    Общее
    Полное имя : Mortal.Engines.2018.UHD.BDRemux.2160p.DV.IVA.RUS.ExKinoRay.mp4
    Формат : MPEG-4
    Профиль формата : Base Media/Version 2
    Идентификатор кодека : mp42 (mp42/iso6/isom/msdh/dby1)
    Размер файла : 63, 5 Гбайт
    Продолжительность : 2 ч. 8 м.
    Общий поток : 70, 8 Мбит/сек
    Дата кодирования : UTC 2019-04-29 22: 00: 06
    Дата пометки : UTC 2019-04-29 22: 00: 06
    Видео #1
    Идентификатор : 1
    Формат : HEVC
    Формат/Информация : High Efficiency Video Coding
    Профиль формата : Main 10@L5.1@High
    HDR_Format : SMPTE ST 2086, HDR10 compatible
    Идентификатор кодека : hev1
    Идентификатор кодека/Информация : High Efficiency Video Coding
    Продолжительность : 2 ч. 8 м.
    Битрейт : 62, 2 Мбит/сек
    Ширина : 3840 пикселей
    Высота : 2160 пикселей
    Соотношение сторон : 16: 9
    Режим частоты кадров : Постоянный
    Частота кадров : 23, 976 (24000/1001) кадра/сек
    Цветовое пространство : YUV
    Субдискретизация насыщенности : 4: 2: 0 (Type 2)
    Битовая глубина : 10 бит
    Бит/(Пиксели*Кадры) : 0.313
    Размер потока : 55, 8 Гбайт (88%)
    Default : Нет
    Дата кодирования : UTC 2019-04-29 22: 00: 06
    Дата пометки : UTC 2019-04-29 22: 00: 06
    Цветовой диапазон : Limited
    Основные цвета : BT.2020
    Характеристики трансфера : PQ
    Коэффициенты матрицы : BT.2020 non-constant
    MasteringDisplay_ColorPrimaries : Display P3
    MasteringDisplay_Luminance : min: 0.0001 cd/m2, max: 1000 cd/m2
    MaxCLL : 1000 cd/m2
    MaxFALL : 921 cd/m2
    Codec configuration box : hvcC
    Видео #2
    Идентификатор : 2
    Формат : HEVC
    Формат/Информация : High Efficiency Video Coding
    Профиль формата : Main 10@L5.1@High
    HDR_Format : Dolby Vision, Version 1.0, dvhe.07.06, EL+RPU/SMPTE ST 2086, HDR10 compatible
    Идентификатор кодека : dvhe
    Идентификатор кодека/Информация : High Efficiency Video Coding with Dolby Vision
    Продолжительность : 2 ч. 8 м.
    Битрейт : 7918 Кбит/сек
    Ширина : 1920 пикселей
    Высота : 1080 пикселей
    Соотношение сторон : 16: 9
    Режим частоты кадров : Постоянный
    Частота кадров : 23, 976 (24000/1001) кадра/сек
    Цветовое пространство : YUV
    Субдискретизация насыщенности : 4: 2: 0 (Type 2)
    Битовая глубина : 10 бит
    Бит/(Пиксели*Кадры) : 0.159
    Размер потока : 7, 10 Гбайт (11%)
    Default : Нет
    Дата кодирования : UTC 2019-04-29 22: 00: 06
    Дата пометки : UTC 2019-04-29 22: 00: 06
    Цветовой диапазон : Limited
    Основные цвета : BT.2020
    Характеристики трансфера : PQ
    Коэффициенты матрицы : BT.2020 non-constant
    MasteringDisplay_ColorPrimaries : Display P3
    MasteringDisplay_Luminance : min: 0.0001 cd/m2, max: 1000 cd/m2
    Codec configuration box : hvcC+dvcC
    Аудио
    Идентификатор : 3
    Формат : AC-3
    Формат/Информация : Audio Coding 3
    Коммерческое название : Dolby Digital
    Идентификатор кодека : ac-3
    Продолжительность : 2 ч. 8 м.
    Вид битрейта : Постоянный
    Битрейт : 640 Кбит/сек
    Каналы : 6 каналов
    ChannelLayout : L R C LFE Ls Rs
    Частота : 48, 0 КГц
    Частота кадров : 31, 250 кадров/сек (1536 SPF)
    Битовая глубина : 16 бит
    Метод сжатия : С потерями
    Размер потока : 588 Мбайт (1%)
    Язык : Russian
    ServiceKind : Complete Main
    Default : Нет
    Дата кодирования : UTC 2019-04-29 22: 00: 06
    Дата пометки : UTC 2019-04-29 22: 00: 06

    Залил: Ivantsov

    Онлайн видео Хроники хищных городов


    Размер скачиваемого торрента: 63.46 GB (68144475251 Bytes)

    Хроники хищных городов/Mortal Engines (2018) UHD BDRemux 2160p от ExKinoRay | 4K | HDR | Dolby Vision | Лицензия
    Рейтинг →
     (голосов: 1, оценка 3/5, голосовать можно 1 раз )

    Другие торренты по теме:

  • Филип Рив - Цикл Хроники хищных городов (2003-2006) FB2
  • Филип Рив - Хроники хищных городов 1. Смертные Машины (2018) MP3
  • Хроники хищных городов / Mortal Engines (2018) WEBRip | Sub
  • Хроники хищных городов / Mortal Engines (2018) WEBRip 1080p | Sub
  • Хроники хищных городов / Mortal Engines (2018) WEB-DLRip от MegaPeer | iTunes
  • Хроники хищных городов / Mortal Engines (2018) WEB-DLRip от MegaPeer | iTunes
  • Хроники хищных городов / Mortal Engines (2018) WEB-DL 720p от селезень | iTunes
  • Хроники хищных городов / Mortal Engines (2018) WEB-DL 1080p от селезень | iTunes


    • Комментарии (0):

      Информация

      Информация

        Посетители, находящиеся в группе Гости, не могут оставлять комментарии в данной новости.

        ↓ Меню




        ↓ Опрос

        А Вы добавили сайт в закладки?
        Да
        Не


        Top 10 за месяц (Фильмы)