.
Авторизация | Регистрация

Бесплатно скачать торрент фильмы, игры, музыка, книги, журналы

  • support: webmaster@servmix.org
» » Время возмездия / Destroyer (2018) BDRemux 1080p от селезень | D, P | iTunes скачать торрент бесплатно


    Время возмездия / Destroyer (2018) BDRemux 1080p от селезень | D, P | iTunes скачать торрент бесплатно

    Дата: 1-05-2019, 11:00 | .torrent скачали: 0


    Время возмездия / Destroyer (2018) BDRemux 1080p от селезень | D, P | iTunes
    Детально о кино
    Русское название: Время возмездия
    Русское название в мировом прокате: Destroyer
    Создали в: 2018
    Категория жанра: Боевик, триллер, драма, криминал, детектив
    Главный режиссер: Карин Кусама

    Актеры
    Николь Кидман, Тоби Кеббелл, Татьяна Маслани, Себастьян Стэн, Скут МакНэйри, Брэдли Уитфорд, Тоби Хасс, Джеймс Джордан, Бо Напп, Джэйд Петтиджон

    О фильме: Внедренная в преступную банду Лос-Анджелеса хрупкая Эрин невольно влюбляется в своего напарника. Однако её жизнь меняется навсегда, когда тщательно подготовленная спецоперация неожиданно идет не по плану. Спустя несколько лет прошлое вновь настигнет девушку, но уже сильную и безжалостную. Грядет время возмездия...
    Снималось в: США
    Киностудия: 30West, Automatik
    Время просмотра: 02: 00: 58
    Перевод текста(ы):
    #1: Дублированный | iTunes

    #2: Профессиональный многоголосый | HDRezka Studio
    Качество фильма: BDRemux 1080p
    Информация о видео: MPEG-4 AVC, 1920x1080, 34.6 Mbit/s, 23.976 fps
    Информация о звуке:
    Информация о звуке #01: 48 kHz, AC3, 5.1, 384 Kbps | iTunes | RUS|
    Информация о звуке #02: 48 kHz, DTS-HD MA, 5.1, 3374 Kbps | HDRezka Studio | RUS|
    Информация о звуке #03: 48 kHz, DTS-HD MA, 5.1, 3388 Kbps | Оригинал | ENG|
    Субтитры: Русские (Full), английские

    MI
    General
    Unique ID : 267370768213110466214172880022780895186 (0xC925BCA3E02E4BCFD6D237805D75DFD2)
    Complete name : D: Video111Blu rayDestroyer.2018.BDREMUX.1080p.seleZen.mkv
    Format : Matroska
    Format version : Version 4
    File size : 35.3 GiB
    Duration : 2 h 0 min
    Overall bit rate mode : Variable
    Overall bit rate : 41.7 Mb/s
    Movie name : Destroyer 2018 from селезень
    Encoded date : UTC 2019-04-30 12: 11: 30
    Writing application : mkvmerge v32.0.0 (;Astral Progressions;) 64-bit
    Writing library : libebml v1.3.7 + libmatroska v1.5.0
    Video
    ID : 1
    Format : AVC
    Format/Info : Advanced Video Codec
    Format profile : High@L4.1
    Format settings : CABAC/4 Ref Frames
    Format settings, CABAC : Yes
    Format settings, Reference : 4 frames
    Format settings, GOP : M=3, N=12
    Codec ID : V_MPEG4/ISO/AVC
    Duration : 2 h 0 min
    Bit rate mode : Variable
    Bit rate : 34.6 Mb/s
    Maximum bit rate : 37.0 Mb/s
    Width : 1 920 pixels
    Height : 1 080 pixels
    Display aspect ratio : 16: 9
    Frame rate mode : Constant
    Frame rate : 23.976 (24000/1001) FPS
    Color space : YUV
    Chroma subsampling : 4: 2: 0
    Bit depth : 8 bits
    Scan type : Progressive
    Bits/(Pixel*Frame) : 0.695
    Stream size : 29.2 GiB (83%)
    Language : English
    Default : Yes
    Forced : No
    Audio #1
    ID : 2
    Format : AC-3
    Format/Info : Audio Coding 3
    Commercial name : Dolby Digital
    Codec ID : A_AC3
    Duration : 2 h 0 min
    Bit rate mode : Constant
    Bit rate : 384 kb/s
    Channel(s) : 6 channels
    Channel layout : L R C LFE Ls Rs
    Sampling rate : 48.0 kHz
    Frame rate : 31.250 FPS (1536 SPF)
    Bit depth : 16 bits
    Compression mode : Lossy
    Stream size : 332 MiB (1%)
    Title : iTunes
    Language : Russian
    Service kind : Complete Main
    Default : Yes
    Forced : Yes
    Audio #2
    ID : 3
    Format : DTS XLL
    Format/Info : Digital Theater Systems
    Commercial name : DTS-HD Master Audio
    Codec ID : A_DTS
    Duration : 2 h 0 min
    Bit rate mode : Variable
    Bit rate : 3 374 kb/s
    Channel(s) : 6 channels
    Channel layout : C L R Ls Rs LFE
    Sampling rate : 48.0 kHz
    Frame rate : 93.750 FPS (512 SPF)
    Bit depth : 24 bits
    Compression mode : Lossless
    Stream size : 2.85 GiB (8%)
    Title : MVO HDRezka Studio (seleZen Re-work)
    Language : Russian
    Default : No
    Forced : No
    Audio #3
    ID : 4
    Format : DTS XLL
    Format/Info : Digital Theater Systems
    Commercial name : DTS-HD Master Audio
    Codec ID : A_DTS
    Duration : 2 h 0 min
    Bit rate mode : Variable
    Bit rate : 3 388 kb/s
    Channel(s) : 6 channels
    Channel layout : C L R Ls Rs LFE
    Sampling rate : 48.0 kHz
    Frame rate : 93.750 FPS (512 SPF)
    Bit depth : 24 bits
    Compression mode : Lossless
    Stream size : 2.86 GiB (8%)
    Title : Original
    Language : English
    Default : No
    Forced : No
    Text #1
    ID : 5
    Format : UTF-8
    Codec ID : S_TEXT/UTF8
    Codec ID/Info : UTF-8 Plain Text
    Duration : 1 h 53 min
    Bit rate : 62 b/s
    Count of elements : 1162
    Stream size : 52.0 KiB (0%)
    Title : Full FOCS
    Language : Russian
    Default : No
    Forced : No
    Text #2
    ID : 6
    Format : UTF-8
    Codec ID : S_TEXT/UTF8
    Codec ID/Info : UTF-8 Plain Text
    Duration : 1 h 59 min
    Bit rate : 37 b/s
    Count of elements : 1200
    Stream size : 32.6 KiB (0%)
    Title : Full
    Language : English
    Default : No
    Forced : No
    Text #3
    ID : 7
    Format : UTF-8
    Codec ID : S_TEXT/UTF8
    Codec ID/Info : UTF-8 Plain Text
    Duration : 1 h 59 min
    Bit rate : 43 b/s
    Count of elements : 1416
    Stream size : 38.1 KiB (0%)
    Title : SDH
    Language : English
    Default : No
    Forced : No
    Menu
    00: 00: 00.000 : en: Chapter 1
    00: 03: 03.975 : en: Chapter 2
    00: 07: 04.382 : en: Chapter 3
    00: 13: 54.375 : en: Chapter 4
    00: 16: 46.631 : en: Chapter 5
    00: 22: 16.961 : en: Chapter 6
    00: 27: 02.830 : en: Chapter 7
    00: 30: 16.606 : en: Chapter 8
    00: 34: 01.164 : en: Chapter 9
    00: 40: 25.632 : en: Chapter 10
    00: 50: 06.253 : en: Chapter 11
    00: 53: 03.555 : en: Chapter 12
    00: 56: 58.915 : en: Chapter 13
    01: 05: 17.914 : en: Chapter 14
    01: 08: 13.715 : en: Chapter 15
    01: 11: 42.924 : en: Chapter 16
    01: 15: 24.979 : en: Chapter 17
    01: 19: 43.070 : en: Chapter 18
    01: 24: 10.295 : en: Chapter 19
    01: 27: 42.299 : en: Chapter 20
    01: 35: 08.244 : en: Chapter 21
    01: 43: 31.705 : en: Chapter 22
    01: 45: 46.507 : en: Chapter 23
    01: 54: 03.420 : en: Chapter 24

    Релиз подготовил:


    Онлайн видео Время возмездия


    Размер скачиваемого торрента: 35.25 GB (37850038966 Bytes)

    Время возмездия/Destroyer (2018) BDRemux 1080p от селезень | D, P | iTunes
    Рейтинг →
     (голосов: 1, оценка 4/5, голосовать можно 1 раз )

    Другие торренты по теме:

  • Время возмездия / Destroyer (2018) DVDScr | HDRezka Studio
  • Время возмездия / Destroyer (2018) WEB-DL 1080p | HDRezka Studio
  • Время возмездия / Destroyer (2018) WEB-DLRip | HDRezka Studio
  • Время возмездия / Destroyer (2018) WEB-DLRip-AVC | HDRezka Studio
  • Время возмездия / Destroyer (2018) WEB-DLRip от Scarabey | HDRezka Studio
  • Время возмездия / Destroyer / 2018 / ПМ / DVDScr
  • Время возмездия / Destroyer / 2018 / ПМ / WEB-DL (1080p)
  • Время возмездия / Destroyer / 2018 / ПМ / WEB-DLRip


    • Комментарии (0):

      Информация

      Информация

        Посетители, находящиеся в группе Гости, не могут оставлять комментарии в данной новости.

        ↓ Меню




        ↓ Опрос

        А Вы добавили сайт в закладки?
        Да
        Не


        Top 10 за месяц (Фильмы)