.
Авторизация | Регистрация

Бесплатно скачать торрент фильмы, игры, музыка, книги, журналы

  • support: webmaster@servmix.org
» » Закатать в асфальт / Dragged Across Concrete (2018) BDRemux 1080p от селезень | iTunes скачать торрент бесплатно


    Закатать в асфальт / Dragged Across Concrete (2018) BDRemux 1080p от селезень | iTunes скачать торрент бесплатно

    Дата: 1-05-2019, 11:00 | .torrent скачали: 0


    Закатать в асфальт / Dragged Across Concrete (2018) BDRemux 1080p от селезень | iTunes
    Детально о кино
    Русское название: Закатать в асфальт
    Русское название в мировом прокате: Dragged Across Concrete
    Создали в: 2018
    Категория жанра: Боевик, триллер, драма, криминал
    Главный режиссер: С. Крэйг Залер

    Актеры
    Мэл Гибсон, Винс Вон, Дженнифер Карпентер, Майкл Джей Уайт, Лори Холден, Дон Джонсон, Томас Кречманн, Удо Кир, Лианнет Боррего, Джастин Уоррингтон

    О фильме: Старого ищейку Риджмана и безбашенного Энтони отстраняют от дел после того, как в сеть попадает видео, где напарники жестко выбивают признание из подозреваемого. Не имея других средств к существованию, экс-копы находят работу в криминальном подполье, где их главным врагом становится вышедший из тюрьмы Генри Джонс, мечтающий о мести полиции.
    Снималось в: Канада, США
    Киностудия: Unified Pictures, Assemble Media, Cinestate
    Время просмотра: 02: 38: 22
    Перевод текста: Дублированный | iTunes
    Качество фильма: BDRemux 1080p
    Информация о видео: MPEG-4 AVC, 1920x1080, 28.6 Mbit/s, 23.976 fps
    Информация о звуке:
    Информация о звуке #01: 48 kHz, AC3, 5.1, 384 Kbps | iTunes | RUS|
    Информация о звуке #02: 48 kHz, DTS-HD MA, 5.1, 3335 Kbps | Оригинал | ENG|
    Субтитры: Русские (Full), английские

    MI
    General
    Unique ID : 179581585526846824870405578304065789786 (0x871A27C1EA6D15F1C22D5B5E054A5F5A)
    Complete name : D: Video111Dragged.Across.Concrete.2018.BDREMUX.1080p.seleZen.mkv
    Format : Matroska
    Format version : Version 4
    File size : 35.7 GiB
    Duration : 2 h 38 min
    Overall bit rate mode : Variable
    Overall bit rate : 32.3 Mb/s
    Movie name : Dragged Across Concrete 2018 from селезень
    Encoded date : UTC 2019-04-30 15: 25: 45
    Writing application : mkvmerge v32.0.0 (;Astral Progressions;) 64-bit
    Writing library : libebml v1.3.7 + libmatroska v1.5.0
    Video
    ID : 1
    Format : AVC
    Format/Info : Advanced Video Codec
    Format profile : High@L4.1
    Format settings : CABAC/4 Ref Frames
    Format settings, CABAC : Yes
    Format settings, Reference : 4 frames
    Codec ID : V_MPEG4/ISO/AVC
    Duration : 2 h 38 min
    Bit rate mode : Variable
    Bit rate : 28.6 Mb/s
    Maximum bit rate : 37.0 Mb/s
    Width : 1 920 pixels
    Height : 1 080 pixels
    Display aspect ratio : 16: 9
    Frame rate mode : Constant
    Frame rate : 23.976 (24000/1001) FPS
    Color space : YUV
    Chroma subsampling : 4: 2: 0
    Bit depth : 8 bits
    Scan type : Progressive
    Bits/(Pixel*Frame) : 0.574
    Stream size : 31.6 GiB (88%)
    Language : English
    Default : Yes
    Forced : No
    Audio #1
    ID : 2
    Format : AC-3
    Format/Info : Audio Coding 3
    Commercial name : Dolby Digital
    Codec ID : A_AC3
    Duration : 2 h 38 min
    Bit rate mode : Constant
    Bit rate : 384 kb/s
    Channel(s) : 6 channels
    Channel layout : L R C LFE Ls Rs
    Sampling rate : 48.0 kHz
    Frame rate : 31.250 FPS (1536 SPF)
    Bit depth : 16 bits
    Compression mode : Lossy
    Stream size : 435 MiB (1%)
    Title : iTunes
    Language : Russian
    Service kind : Complete Main
    Default : Yes
    Forced : Yes
    Audio #2
    ID : 3
    Format : DTS XLL
    Format/Info : Digital Theater Systems
    Commercial name : DTS-HD Master Audio
    Codec ID : A_DTS
    Duration : 2 h 38 min
    Bit rate mode : Variable
    Bit rate : 3 335 kb/s
    Channel(s) : 6 channels
    Channel layout : C L R Ls Rs LFE
    Sampling rate : 48.0 kHz
    Frame rate : 93.750 FPS (512 SPF)
    Bit depth : 24 bits
    Compression mode : Lossless
    Stream size : 3.69 GiB (10%)
    Title : Original
    Language : English
    Default : No
    Forced : No
    Text #1
    ID : 4
    Format : UTF-8
    Codec ID : S_TEXT/UTF8
    Codec ID/Info : UTF-8 Plain Text
    Duration : 2 h 28 min
    Bit rate : 71 b/s
    Count of elements : 1617
    Stream size : 78.3 KiB (0%)
    Title : Full
    Language : Russian
    Default : No
    Forced : No
    Text #2
    ID : 5
    Format : UTF-8
    Codec ID : S_TEXT/UTF8
    Codec ID/Info : UTF-8 Plain Text
    Duration : 2 h 28 min
    Bit rate : 45 b/s
    Count of elements : 1548
    Stream size : 49.6 KiB (0%)
    Title : Full
    Language : English
    Default : No
    Forced : No
    Text #3
    ID : 6
    Format : UTF-8
    Codec ID : S_TEXT/UTF8
    Codec ID/Info : UTF-8 Plain Text
    Duration : 2 h 28 min
    Bit rate : 46 b/s
    Count of elements : 1677
    Stream size : 50.4 KiB (0%)
    Title : SDH
    Language : English
    Default : No
    Forced : No
    Menu
    00: 00: 00.000 : ru: Глава 01
    00: 09: 32.113 : ru: Глава 02
    00: 19: 30.920 : ru: Глава 03
    00: 27: 22.558 : ru: Глава 04
    00: 35: 24.622 : ru: Глава 05
    00: 43: 50.503 : ru: Глава 06
    00: 55: 01.381 : ru: Глава 07
    01: 04: 38.291 : ru: Глава 08
    01: 15: 11.298 : ru: Глава 09
    01: 24: 12.005 : ru: Глава 10
    01: 30: 18.079 : ru: Глава 11
    01: 37: 44.650 : ru: Глава 12
    01: 45: 51.804 : ru: Глава 13
    02: 02: 37.433 : ru: Глава 14
    02: 14: 07.081 : ru: Глава 15
    02: 25: 37.729 : ru: Глава 16

    Релиз подготовил:


    Онлайн видео Закатать в асфальт


    Размер скачиваемого торрента: 35.71 GB (38344064238 Bytes)

    Закатать в асфальт/Dragged Across Concrete (2018) BDRemux 1080p от селезень | iTunes
    Рейтинг →
     (голосов: 1, оценка 3/5, голосовать можно 1 раз )

    Другие торренты по теме:

  • Закатать в асфальт / Dragged Across Concrete / 2018 / ЛМ / WEB-DLRip
  • Закатать в асфальт / Dragged Across Concrete (2018) WEB-DL 1080p от qqss44 MegaPeer | HDRezka Studio
  • Закатать в асфальт / Dragged Across Concrete (2018) WEB-DLRip от MegaPeer | HDRezka studio
  • Закатать в асфальт / Dragged Across Concrete (2018) WEB-DLRip от MegaPeer | HDRezka studio
  • Закатать в асфальт / Dragged Across Concrete (2018) WEBRip 720p от k.e.n MegaPeer | HDRezka Studio
  • Закатать в асфальт / Dragged Across Concrete (2018) WEBRip 1080p | HDRezka Studio
  • Закатать в асфальт / Dragged Across Concrete (2018) WEB-DLRip-AVC от OlLanDGroup | HDRezka Studio
  • Закатать в асфальт / Dragged Across Concrete (2018) WEB-DLRip от Scarabey | HDRezka Studio


    • Комментарии (0):

      Информация

      Информация

        Посетители, находящиеся в группе Гости, не могут оставлять комментарии в данной новости.

        ↓ Меню




        ↓ Опрос

        А Вы добавили сайт в закладки?
        Да
        Не


        Top 10 за месяц (Фильмы)