.
Авторизация | Регистрация

Бесплатно скачать торрент фильмы, игры, музыка, книги, журналы

  • support: webmaster@servmix.org
» » Настоящая любовь / True Romance (1993) BDRip-HEVC 1080p | P, P2, A скачать торрент бесплатно


    Настоящая любовь / True Romance (1993) BDRip-HEVC 1080p | P, P2, A скачать торрент бесплатно

    Дата: 1-05-2019, 11:00 | .torrent скачали: 0


    Настоящая любовь / True Romance (1993) BDRip-HEVC 1080p | P, P2, A
    Детально о кино
    Русское название: Настоящая любовь
    Русское название в мировом прокате: True Romance
    Создали в: 1993
    Категория жанра: Триллер, Драма, Мелодрама, Криминал
    Главный режиссер: Тони Скотт

    Актеры
    Кристиан Слэйтер, Патриша Аркетт, Майкл Рапапорт, Джеймс Гандольфини, Бронсон Пиншо, Брэд Питт, Деннис Хоппер, Кристофер Уокен, Сол Рубинек, Гари Олдман

    Сюжет фильма

    Кларенс Уорли и Алабама Уитмэн познакомились и провели вместе ночь. Алабама призналась, что она делает первые шаги на трудном поприще call-girl, то есть девушки по вызову. Кларенс Уорли не был суперменом, однако, навестив сутенера Алабамы, оставил после себя два трупа — сутенера и его телохранителя… Кларенс и Алабама поженились и отправились в свадебное путешествие через всю Америку, чтобы сбыть наркотики и получить кругленькую сумму. В погоню за ними устремились мафиозные владельцы кокса и полиция.

    Снималось в: США, Франция
    Киностудия: August Entertainment, Davis-Films, Morgan Creek Productions
    Время просмотра: 02: 00: 30
    Перевод текста: Профессиональный (многоголосый, закадровый), профессиональный (двухголосый, закадровый), авторский (одноголосый, закадровый)
    Файл
    Кодек для видео: HEVC x265
    Качество фильма: BDRip-HEVC 1080p
    Информация о видео: 1920x816 (2.35: 1), 11, 5 Мбит/сек, 0.307 бит/(Пиксели*Кадры), 23, 976 (24000/1001) кадра/сек, HEVC (Main 10@L4.1@High) 10 бит
    Информация о звуке:
    Аудио1: AC3, 6 ch, 640 Kbps - Русский, Многоголосый R5 (Twister)
    Аудио2: AC3, 6 ch, 512 Kbps - Русский, Многоголосый (Киномания)
    Аудио3: AC3, 2 ch, 224 Kbps - Русский, Многоголосый (ДТВ)
    Аудио4: AC3, 2 ch, 224 Kbps - Русский, Многоголосый (Тивионика)
    Аудио5: AC3, 2 ch, 224 Kbps - Русский, Многоголосый (Петербург 5 канал)
    Аудио6: AC3, 2 ch, 224 Kbps - Русский, Многоголосый (ТВЦ)
    Аудио7: AC3, 6 ch, 640 Kbps - Русский, Двухголосый (Пётр Гланц и Инна Королёва)
    Аудио8: AC3, 6 ch, 640 Kbps - Русский, Авторский (Юрий Живов)
    Аудио9: AC3, 6 ch, 640 Kbps - Русский, Авторский (Андрей Гаврилов)
    Аудио10: AC3, 6 ch, 640 Kbps - Английский, Оригинал
    Субтитры: Русские полные (SRT, PGS), English full (SRT, PGS)
    Семпл
    Внимание!!! H.265/HEVC
    H.265/HEVC (High Efficiency Video Coding) - это новый стандарт кодирования видео.
    - Стандарт H.265/HEVC является логическим продолжением стандарта
    H.264/AVC (Advanced Video Coding), и характеризуется более эффективными
    алгоритмами сжатия, а также поддержкой высокого разрешения вплоть до 8K UHD
    (8192x4320). Первая версия стандарта H.265 была опубликована в начале 2013 года.
    - Рипы в фомате HEVC поддерживается не всеми аппаратными проигрывателями.
    - Для корректного воспроизведения может потребоваться обновление ПО.
    - Владельцам несовместимого железа просьба не беспокоить,
    есть альтернативные релизы.

    Mediainfo

    x265 info: frame I: 742, Avg QP: 17.73 kb/s: 21779.58
    x265 info: frame P: 33838, Avg QP: 19.03 kb/s: 17052.66
    x265 info: frame B: 138772, Avg QP: 20.99 kb/s: 10112.03
    x265 info: Weighted P-Frames: Y: 10.5% UV: 8.3%
    x265 info: Weighted B-Frames: Y: 10.8% UV: 6.7%
    x265 info: consecutive B-frames: 2.8% 3.0% 3.1% 38.4% 7.1% 35.7% 3.3% 4.5% 0.7% 0.7% 0.2% 0.3% 0.1% 0.1%
    x265 info: encoded 173352 frames in 211933.79s (0.82 fps), 11516.77 kb/s, Avg QP: 20.59
    Формат : Matroska
    Версия формата : Version 4
    Размер файла : 13, 6 Гбайт
    Продолжительность : 2 ч. 0 м.
    Общий поток : 16, 2 Мбит/сек
    Название фильма : Настоящая любовь
    Дата кодирования : UTC 2019-04-30 12: 28: 15
    Программа кодирования : mkvmerge v33.0.0 (;A Little Bit of Madness;) 64-bit
    Библиотека кодирования : libebml v1.3.7 + libmatroska v1.5.0/Lavf57.71.100
    Примечание : Rip by OldGamer
    Attachments : poster.jpg
    ACTORS : Кристиан Слэйтер, Патриша Аркетт,
    COUNTRY : США
    DATE : 1993
    DIRECTOR : Тони Скотт
    ENCODING_INFO : MATROSKA, WEBM MKV/H264 X265 CRF 19.5 Very Slow/DTS AC3 CBR 640kbps/AC3 COPY Безопасное/AC3 COPY Безопасное/AC3 COPY Безопасное/AC3 COPY Безопасное/AC3 COPY Безопасное/DTS-HD MA AC3 CBR 640kbps/DTS-HD MA AC3 CBR 640kbps/DTS-HD MA AC3 CBR 640kbps/DTS-HD MA AC3 CBR 640kbps
    GENRE : триллер, драма, мелодрама
    HD_VIDEO : 1
    Язык : und
    MEDIA_TYPE : 9
    ORIGINAL_TITLE : True Romance
    Видео
    Идентификатор : 1
    Формат : HEVC
    Формат/Информация : High Efficiency Video Coding
    Профиль формата : Main 10@L4.1@High
    Идентификатор кодека : V_MPEGH/ISO/HEVC
    Продолжительность : 2 ч. 0 м.
    Битрейт : 11, 5 Мбит/сек
    Ширина : 1920 пикселей
    Высота : 816 пикселей
    Соотношение сторон : 2, 35: 1
    Режим частоты кадров : Постоянный
    Частота кадров : 23, 976 (24000/1001) кадра/сек
    Цветовое пространство : YUV
    Субдискретизация насыщенности : 4: 2: 0
    Битовая глубина : 10 бит
    Бит/(Пиксели*Кадры) : 0.307
    Размер потока : 9, 69 Гбайт (71%)
    Заголовок : True Romance/Rip by OldGamer
    Библиотека кодирования : x265 2.9+9-f74003e88622: WindowsGCC 8.2.064 bit 10bit
    Настройки программы : cpuid=1111039/frame-threads=13/numa-pools=12/wpp/no-pmode/no-pme/no-psnr/no-ssim/log-level=3/input-csp=1/input-res=1920x816/interlace=0/total-frames=0/level-idc=41/high-tier=1/uhd-bd=0/ref=5/allow-non-conformance/no-repeat-t_heads/annexb/no-aud/no-hrd/info/hash=0/no-temporal-layers/open-gop/min-keyint=23/keyint=240/gop-lookahead=0/bframes=13/b-adapt=2/b-pyramid/bframe-bias=0/rc-lookahead=60/lookahead-slices=5/scenecut=40/radl=0/no-intra-refresh/ctu=64/min-cu-size=8/rect/amp/max-tu-size=32/tu-inter-depth=4/tu-intra-depth=4/limit-tu=1/rdoq-level=2/dynamic-rd=0.00/no-ssim-rd/signhide/no-tskip/nr-intra=0/nr-inter=0/no-constrained-intra/no-strong-intra-smoothing/max-merge=5/limit-refs=2/no-limit-modes/me=3/subme=7/merange=57/temporal-mvp/weightp/weightb/no-analyze-src-pics/deblock=-3: -3/no-sao/no-sao-non-deblock/rd=6/no-early-skip/rskip/no-fast-intra/no-tskip-fast/no-cu-lossless/no-b-intra/no-splitrd-skip/rdpenalty=0/psy-rd=2.00/psy-rdoq=1.00/no-rd-refine/no-lossless/cbqpoffs=0/crqpoffs=0/rc=crf/crf=19.5/qcomp=0.75/qpstep=4/stats-write=0/stats-read=0/vbv-maxrate=50000/vbv-bufsize=50000/vbv-init=0.9/crf-max=0.0/crf-min=0.0/ipratio=1.40/pbratio=1.30/aq-mode=2/aq-strength=0.80/no-cutree/zone-count=0/no-strict-cbr/qg-size=32/no-rc-grain/qpmax=69/qpmin=0/no-const-vbv/sar=1/overscan=0/videoformat=5/range=0/colorprim=2/transfer=2/colormatrix=2/chromaloc=0/display-window=0/max-cll=0, 0/min-luma=0/max-luma=1023/log2-max-poc-lsb=8/vui-timing-info/vui-hrd-info/slices=1/no-opt-qp-pps/no-opt-ref-list-length-pps/no-multi-pass-opt-rps/scenecut-bias=0.00/no-opt-cu-delta-qp/aq-motion/no-hdr/no-hdr-opt/no-dhdr10-opt/no-idr-recovery-sei/analysis-reuse-level=5/scale-factor=0/refine-intra=0/refine-inter=0/refine-mv=0/no-limit-sao/ctu-info=0/no-lowpass-dct/refine-mv-type=0/copy-pic=1/max-ausize-factor=1.0/no-dynamic-refine/no-single-sei
    Язык : English
    Default : Да
    Forced : Нет
    Цветовой диапазон : Limited
    Аудио #1
    Идентификатор : 2
    Формат : AC-3
    Формат/Информация : Audio Coding 3
    Коммерческое название : Dolby Digital
    Идентификатор кодека : A_AC3
    Продолжительность : 2 ч. 0 м.
    Вид битрейта : Постоянный
    Битрейт : 640 Кбит/сек
    Каналы : 6 каналов
    Channel layout : L R C LFE Ls Rs
    Частота : 48, 0 КГц
    Частота кадров : 31, 250 кадров/сек (1536 SPF)
    Битовая глубина : 16 бит
    Метод сжатия : С потерями
    Размер потока : 552 Мбайт (4%)
    Заголовок : MVO R5 (Twister)
    Язык : Russian
    ServiceKind/ : Complete Main
    Default : Да
    Forced : Нет
    Аудио #2
    Идентификатор : 3
    Формат : AC-3
    Формат/Информация : Audio Coding 3
    Коммерческое название : Dolby Digital
    Идентификатор кодека : A_AC3
    Продолжительность : 2 ч. 0 м.
    Вид битрейта : Постоянный
    Битрейт : 512 Кбит/сек
    Каналы : 6 каналов
    Channel layout : L R C LFE Ls Rs
    Частота : 48, 0 КГц
    Частота кадров : 31, 250 кадров/сек (1536 SPF)
    Битовая глубина : 16 бит
    Метод сжатия : С потерями
    Размер потока : 441 Мбайт (3%)
    Заголовок : MVO Киномания
    Язык : Russian
    ServiceKind/ : Complete Main
    Default : Нет
    Forced : Нет
    Аудио #3
    Идентификатор : 4
    Формат : AC-3
    Формат/Информация : Audio Coding 3
    Коммерческое название : Dolby Digital
    Идентификатор кодека : A_AC3
    Продолжительность : 2 ч. 0 м.
    Вид битрейта : Постоянный
    Битрейт : 224 Кбит/сек
    Каналы : 2 канала
    Channel layout : L R
    Частота : 48, 0 КГц
    Частота кадров : 31, 250 кадров/сек (1536 SPF)
    Битовая глубина : 16 бит
    Метод сжатия : С потерями
    Размер потока : 193 Мбайт (1%)
    Заголовок : MVO ДТВ
    Язык : Russian
    ServiceKind/ : Complete Main
    Default : Нет
    Forced : Нет
    Аудио #4
    Идентификатор : 5
    Формат : AC-3
    Формат/Информация : Audio Coding 3
    Коммерческое название : Dolby Digital
    Идентификатор кодека : A_AC3
    Продолжительность : 2 ч. 0 м.
    Вид битрейта : Постоянный
    Битрейт : 224 Кбит/сек
    Каналы : 2 канала
    Channel layout : L R
    Частота : 48, 0 КГц
    Частота кадров : 31, 250 кадров/сек (1536 SPF)
    Битовая глубина : 16 бит
    Метод сжатия : С потерями
    Размер потока : 193 Мбайт (1%)
    Заголовок : MVO Тивионика
    Язык : Russian
    ServiceKind/ : Complete Main
    Default : Нет
    Forced : Нет
    Аудио #5
    Идентификатор : 6
    Формат : AC-3
    Формат/Информация : Audio Coding 3
    Коммерческое название : Dolby Digital
    Идентификатор кодека : A_AC3
    Продолжительность : 2 ч. 0 м.
    Вид битрейта : Постоянный
    Битрейт : 224 Кбит/сек
    Каналы : 2 канала
    Channel layout : L R
    Частота : 48, 0 КГц
    Частота кадров : 31, 250 кадров/сек (1536 SPF)
    Битовая глубина : 16 бит
    Метод сжатия : С потерями
    Размер потока : 193 Мбайт (1%)
    Заголовок : MVO Петербург 5 канал
    Язык : Russian
    ServiceKind/ : Complete Main
    Default : Нет
    Forced : Нет
    Аудио #6
    Идентификатор : 7
    Формат : AC-3
    Формат/Информация : Audio Coding 3
    Коммерческое название : Dolby Digital
    Идентификатор кодека : A_AC3
    Продолжительность : 2 ч. 0 м.
    Вид битрейта : Постоянный
    Битрейт : 224 Кбит/сек
    Каналы : 2 канала
    Channel layout : L R
    Частота : 48, 0 КГц
    Частота кадров : 31, 250 кадров/сек (1536 SPF)
    Битовая глубина : 16 бит
    Метод сжатия : С потерями
    Размер потока : 193 Мбайт (1%)
    Заголовок : MVO ТВЦ
    Язык : Russian
    ServiceKind/ : Complete Main
    Default : Нет
    Forced : Нет
    Аудио #7
    Идентификатор : 8
    Формат : AC-3
    Формат/Информация : Audio Coding 3
    Коммерческое название : Dolby Digital
    Идентификатор кодека : A_AC3
    Продолжительность : 2 ч. 0 м.
    Вид битрейта : Постоянный
    Битрейт : 640 Кбит/сек
    Каналы : 6 каналов
    Channel layout : L R C LFE Ls Rs
    Частота : 48, 0 КГц
    Частота кадров : 31, 250 кадров/сек (1536 SPF)
    Битовая глубина : 16 бит
    Метод сжатия : С потерями
    Размер потока : 552 Мбайт (4%)
    Заголовок : DVO (Пётр Гланц и Инна Королёва)
    Язык : Russian
    ServiceKind/ : Complete Main
    Default : Нет
    Forced : Нет
    Аудио #8
    Идентификатор : 9
    Формат : AC-3
    Формат/Информация : Audio Coding 3
    Коммерческое название : Dolby Digital
    Идентификатор кодека : A_AC3
    Продолжительность : 2 ч. 0 м.
    Вид битрейта : Постоянный
    Битрейт : 640 Кбит/сек
    Каналы : 6 каналов
    Channel layout : L R C LFE Ls Rs
    Частота : 48, 0 КГц
    Частота кадров : 31, 250 кадров/сек (1536 SPF)
    Битовая глубина : 16 бит
    Метод сжатия : С потерями
    Размер потока : 552 Мбайт (4%)
    Заголовок : Aвторский (Юрий Живов)
    Язык : Russian
    ServiceKind/ : Complete Main
    Default : Нет
    Forced : Нет
    Аудио #9
    Идентификатор : 10
    Формат : AC-3
    Формат/Информация : Audio Coding 3
    Коммерческое название : Dolby Digital
    Идентификатор кодека : A_AC3
    Продолжительность : 2 ч. 0 м.
    Вид битрейта : Постоянный
    Битрейт : 640 Кбит/сек
    Каналы : 6 каналов
    Channel layout : L R C LFE Ls Rs
    Частота : 48, 0 КГц
    Частота кадров : 31, 250 кадров/сек (1536 SPF)
    Битовая глубина : 16 бит
    Метод сжатия : С потерями
    Размер потока : 552 Мбайт (4%)
    Заголовок : Авторский (Андрей Гаврилов)
    Язык : Russian
    ServiceKind/ : Complete Main
    Default : Нет
    Forced : Нет
    Аудио #10
    Идентификатор : 11
    Формат : AC-3
    Формат/Информация : Audio Coding 3
    Коммерческое название : Dolby Digital
    Идентификатор кодека : A_AC3
    Продолжительность : 2 ч. 0 м.
    Вид битрейта : Постоянный
    Битрейт : 640 Кбит/сек
    Каналы : 6 каналов
    Channel layout : L R C LFE Ls Rs
    Частота : 48, 0 КГц
    Частота кадров : 31, 250 кадров/сек (1536 SPF)
    Битовая глубина : 16 бит
    Метод сжатия : С потерями
    Размер потока : 552 Мбайт (4%)
    Заголовок : English
    Язык : English
    ServiceKind/ : Complete Main
    Default : Нет
    Forced : Нет
    Текст #1
    Идентификатор : 12
    Формат : UTF-8
    Идентификатор кодека : S_TEXT/UTF8
    Идентификатор кодека/Информация : UTF-8 Plain Text
    Продолжительность : 1 ч. 55 м.
    Битрейт : 132 бит/сек
    ElementCount : 1885
    Размер потока : 112 Кбайт (0%)
    Заголовок : v2
    Язык : Russian
    Default : Нет
    Forced : Нет
    Текст #2
    Идентификатор : 13
    Формат : UTF-8
    Идентификатор кодека : S_TEXT/UTF8
    Идентификатор кодека/Информация : UTF-8 Plain Text
    Продолжительность : 1 ч. 56 м.
    Битрейт : 113 бит/сек
    ElementCount : 1811
    Размер потока : 96, 7 Кбайт (0%)
    Заголовок : v4 DC
    Язык : Russian
    Default : Нет
    Forced : Нет
    Текст #3
    Идентификатор : 14
    Формат : PGS
    Режим смешивания : zlib
    Идентификатор кодека : S_HDMV/PGS
    Идентификатор кодека/Информация : Picture based subtitle format used on BDs/HD-DVDs
    Продолжительность : 1 ч. 55 м.
    Битрейт : 40, 1 Кбит/сек
    ElementCount : 3154
    Размер потока : 33, 2 Мбайт (0%)
    Язык : Russian
    Default : Да
    Forced : Нет
    Текст #4
    Идентификатор : 15
    Формат : PGS
    Режим смешивания : zlib
    Идентификатор кодека : S_HDMV/PGS
    Идентификатор кодека/Информация : Picture based subtitle format used on BDs/HD-DVDs
    Продолжительность : 1 ч. 55 м.
    Битрейт : 41, 1 Кбит/сек
    ElementCount : 3082
    Размер потока : 34, 0 Мбайт (0%)
    Язык : Russian
    Default : Нет
    Forced : Нет
    Текст #5
    Идентификатор : 16
    Формат : UTF-8
    Идентификатор кодека : S_TEXT/UTF8
    Идентификатор кодека/Информация : UTF-8 Plain Text
    Продолжительность : 1 ч. 55 м.
    Битрейт : 71 бит/сек
    ElementCount : 1793
    Размер потока : 60, 7 Кбайт (0%)
    Заголовок : CHD
    Язык : English
    Default : Нет
    Forced : Нет
    Текст #6
    Идентификатор : 17
    Формат : UTF-8
    Идентификатор кодека : S_TEXT/UTF8
    Идентификатор кодека/Информация : UTF-8 Plain Text
    Продолжительность : 1 ч. 59 м.
    Битрейт : 79 бит/сек
    ElementCount : 1646
    Размер потока : 69, 3 Кбайт (0%)
    Заголовок : Ganool.is
    Язык : English
    Default : Нет
    Forced : Нет
    Текст #7
    Идентификатор : 18
    Формат : PGS
    Режим смешивания : zlib
    Идентификатор кодека : S_HDMV/PGS
    Идентификатор кодека/Информация : Picture based subtitle format used on BDs/HD-DVDs
    Продолжительность : 1 ч. 55 м.
    Битрейт : 48, 3 Кбит/сек
    ElementCount : 3598
    Размер потока : 39, 8 Мбайт (0%)
    Язык : English
    Default : Нет
    Forced : Нет
    Меню
    00: 00: 00.000 : : Chapter 01
    00: 03: 22.869 : : Chapter 02
    00: 05: 49.182 : : Chapter 03
    00: 08: 43.022 : : Chapter 04
    00: 12: 07.893 : : Chapter 05
    00: 17: 37.306 : : Chapter 06
    00: 19: 04.476 : : Chapter 07
    00: 20: 41.949 : : Chapter 08
    00: 24: 28.800 : : Chapter 09
    00: 32: 21.439 : : Chapter 10
    00: 34: 21.184 : : Chapter 11
    00: 40: 24.880 : : Chapter 12
    00: 41: 41.081 : : Chapter 13
    00: 44: 55.651 : : Chapter 14
    00: 47: 10.285 : : Chapter 15
    00: 58: 23.917 : : Chapter 16
    01: 03: 57.500 : : Chapter 17
    01: 08: 00.701 : : Chapter 18
    01: 11: 37.501 : : Chapter 19
    01: 13: 08.258 : : Chapter 20
    01: 18: 40.674 : : Chapter 21
    01: 24: 09.627 : : Chapter 22
    01: 27: 48.846 : : Chapter 23
    01: 31: 53.716 : : Chapter 24
    01: 33: 45.995 : : Chapter 25
    01: 37: 26.382 : : Chapter 26
    01: 38: 37.745 : : Chapter 27
    01: 43: 01.592 : : Chapter 28
    01: 46: 54.741 : : Chapter 29
    01: 47: 48.128 : : Chapter 30
    01: 48: 56.238 : : Chapter 31
    01: 51: 08.328 : : Chapter 32
    01: 54: 12.929 : : Chapter 33

    Скриншоты

    Релиз подготовил: OldGamer hevc-club

    Онлайн видео Настоящая любовь


    Размер скачиваемого торрента: 13.62 GB (14629509831 Bytes)

    Настоящая любовь/True Romance (1993) BDRip-HEVC 1080p | P, P2, A
    Рейтинг →
     (голосов: 1, оценка 4/5, голосовать можно 1 раз )

    Другие торренты по теме:

  • Настоящая любовь / True Romance (1993) BDRip 720p от leonardo 59
  • Настоящая любовь / True Romance (1993) DVD9 | P, A скачать через торрент бесплатно
  • Настоящая любовь / True Romance (1993) DVDRip от Leon-masl | P2 скачать через торрент бесплатно
  • Настоящая любовь / True Romance (1993) BDRip-AVC | P, P2, A
  • Белое золото - Настоящая любовь (2015) MP3
  • Настоящая любовь / True Romance (1993) BDRip 720p от ExKinoRay | P, P2, A | Режиссерская версия
  • Семеник Д.Г. - Настоящая любовь (2018) (2018) MP3


    • Комментарии (0):

      Информация

      Информация

        Посетители, находящиеся в группе Гости, не могут оставлять комментарии в данной новости.

        ↓ Меню




        ↓ Опрос

        А Вы добавили сайт в закладки?
        Да
        Не


        Top 10 за месяц (Фильмы)