.
Авторизация | Регистрация

Бесплатно скачать торрент фильмы, игры, музыка, книги, журналы

  • support: webmaster@servmix.org
» » Лабиринты прошлого / Todos lo saben / Everybody Knows (2018) BDRemux 1080p от селезень | iTunes скачать торрент бесплатно


    Лабиринты прошлого / Todos lo saben / Everybody Knows (2018) BDRemux 1080p от селезень | iTunes скачать торрент бесплатно

    Дата: 1-05-2019, 11:00 | .torrent скачали: 0


    Лабиринты прошлого / Todos lo saben / Everybody Knows (2018) BDRemux 1080p от селезень | iTunes
    Детально о кино
    Русское название: Лабиринты прошлого
    Русское название в мировом прокате: Todos lo saben/Everybody Knows
    Создали в: 2018
    Категория жанра: Триллер, драма, криминал, детектив
    Главный режиссер: Асгар Фархади

    Актеры
    Пенелопа Крус, Хавьер Бардем, Хайме Лорэнте, Барбара Ленни, Рикардо Дарин, Инма Куэста, Карла Кампра, Эльвира Мингес, Сара Саламо, Эдуард Фернандес

    О фильме: Испания, свадьба, друзья. Всего один день и неожиданное происшествие полностью меняет жизнь Лауры и Пако, некогда любивших друг друга. Им придется столкнуться лицом к лицу со своим прошлым, чтобы предотвратить непоправимое.
    Снималось в: Испания, Франция, Италия
    Киностудия: Memento Films Production, Morena Films, Lucky Red
    Время просмотра: 02: 13: 39
    Перевод текста: Дублированный | iTunes
    Качество фильма: BDRemux 1080p
    Информация о видео: MPEG-4 AVC, 1920x1080, 36.4 Mbit/s, 23.976 fps
    Информация о звуке:
    Информация о звуке #01: 48 kHz, AC3, 5.1, 384 Kbps | iTunes | RUS|
    Информация о звуке #02: 48 kHz, DTS-HD MA, 5.1, 3208 Kbps | Оригинал | SPA|
    Субтитры: Английские

    MI
    General
    Unique ID : 107899370735385896231709935733992762231 (0x512CA9B45666BBDB8FBFB00CDA3AAB77)
    Complete name : D: Video1111080Todos.lo.Saben.2018.BDREMUX.1080p.seleZen.mkv
    Format : Matroska
    Format version : Version 4
    File size : 37.3 GiB
    Duration : 2 h 13 min
    Overall bit rate mode : Variable
    Overall bit rate : 40.0 Mb/s
    Movie name : Todos lo saben 2018 from селезень
    Encoded date : UTC 2019-04-30 22: 59: 17
    Writing application : mkvmerge v32.0.0 (;Astral Progressions;) 64-bit
    Writing library : libebml v1.3.7 + libmatroska v1.5.0
    Video
    ID : 1
    Format : AVC
    Format/Info : Advanced Video Codec
    Format profile : High@L4.1
    Format settings : CABAC/4 Ref Frames
    Format settings, CABAC : Yes
    Format settings, Reference : 4 frames
    Codec ID : V_MPEG4/ISO/AVC
    Duration : 2 h 13 min
    Bit rate mode : Variable
    Bit rate : 36.4 Mb/s
    Maximum bit rate : 40.0 Mb/s
    Width : 1 920 pixels
    Height : 1 080 pixels
    Display aspect ratio : 16: 9
    Frame rate mode : Constant
    Frame rate : 23.976 (24000/1001) FPS
    Color space : YUV
    Chroma subsampling : 4: 2: 0
    Bit depth : 8 bits
    Scan type : Progressive
    Bits/(Pixel*Frame) : 0.732
    Stream size : 34.0 GiB (91%)
    Language : Spanish
    Default : No
    Forced : No
    Audio #1
    ID : 2
    Format : AC-3
    Format/Info : Audio Coding 3
    Commercial name : Dolby Digital
    Codec ID : A_AC3
    Duration : 2 h 13 min
    Bit rate mode : Constant
    Bit rate : 384 kb/s
    Channel(s) : 6 channels
    Channel layout : L R C LFE Ls Rs
    Sampling rate : 48.0 kHz
    Frame rate : 31.250 FPS (1536 SPF)
    Bit depth : 16 bits
    Compression mode : Lossy
    Stream size : 367 MiB (1%)
    Title : iTunes
    Language : Russian
    Service kind : Complete Main
    Default : Yes
    Forced : Yes
    Audio #2
    ID : 3
    Format : DTS XLL
    Format/Info : Digital Theater Systems
    Commercial name : DTS-HD Master Audio
    Codec ID : A_DTS
    Duration : 2 h 13 min
    Bit rate mode : Variable
    Bit rate : 3 208 kb/s
    Channel(s) : 6 channels
    Channel layout : C L R Ls Rs LFE
    Sampling rate : 48.0 kHz
    Frame rate : 93.750 FPS (512 SPF)
    Bit depth : 24 bits
    Compression mode : Lossless
    Stream size : 2.99 GiB (8%)
    Title : Original
    Language : Spanish
    Default : No
    Forced : No
    Text
    ID : 4
    Format : UTF-8
    Codec ID : S_TEXT/UTF8
    Codec ID/Info : UTF-8 Plain Text
    Duration : 2 h 5 min
    Bit rate : 34 b/s
    Count of elements : 1348
    Stream size : 32.1 KiB (0%)
    Title : Full
    Language : English
    Default : No
    Forced : No
    Menu
    00: 00: 00.000 : : Chapter 01
    00: 09: 34.365 : : Chapter 02
    00: 18: 01.580 : : Chapter 03
    00: 22: 43.112 : : Chapter 04
    00: 31: 20.879 : : Chapter 05
    00: 39: 42.964 : : Chapter 06
    00: 46: 12.687 : : Chapter 07
    00: 51: 41.598 : : Chapter 08
    00: 58: 35.846 : : Chapter 09
    01: 06: 25.648 : : Chapter 10
    01: 12: 33.266 : : Chapter 11
    01: 19: 43.237 : : Chapter 12
    01: 25: 20.324 : : Chapter 13
    01: 28: 53.119 : : Chapter 14
    01: 35: 16.836 : : Chapter 15
    01: 41: 09.772 : : Chapter 16
    01: 48: 17.074 : : Chapter 17
    01: 54: 32.783 : : Chapter 18
    02: 05: 34.235 : : Chapter 19
    02: 09: 25.091 : : Chapter 20

    Релиз подготовил:


    Онлайн видео Лабиринты прошлого


    Размер скачиваемого торрента: 37.34 GB (40089429107 Bytes)

    Лабиринты прошлого/Todos lo saben/Everybody Knows (2018) BDRemux 1080p от селезень | iTunes
    Рейтинг →
     (голосов: 1, оценка 4/5, голосовать можно 1 раз )

    Другие торренты по теме:

  • Темные лабиринты прошлого (2013) SATRip
  • Темные лабиринты прошлого (2013) WEB-DLRip от Generalfilm
  • Лабиринты прошлого / Todos lo saben / Everybody Knows (2018) BDRip от MegaPeer | HDRezka Studio
  • Лабиринты прошлого / Todos lo saben / Everybody Knows (2018) BDRip от MegaPeer | HDRezka Studio
  • Лабиринты прошлого / Todos lo saben / Everybody Knows (2018) BDRip 1080p | HDRezka Studio
  • Лабиринты прошлого / Todos lo saben / Everybody Knows (2018) BDRip-AVC от OlLanDGroup | HDRezka Studio
  • Лабиринты прошлого / Todos lo saben / Everybody Knows (2018) HDRip-AVC от ExKinoRay | HDRezka Studio
  • Лабиринты прошлого / Todos lo saben / Everybody Knows (2018) BDRip 1080p от селезень | iTunes


    • Комментарии (0):

      Информация

      Информация

        Посетители, находящиеся в группе Гости, не могут оставлять комментарии в данной новости.

        ↓ Меню




        ↓ Опрос

        А Вы добавили сайт в закладки?
        Да
        Не


        Top 10 за месяц (Фильмы)