.
Авторизация | Регистрация
Хочешь лучшие торренты? Добавь свой email!
Добавить
  • support: webmaster@servmix.org
» » Улики / Evidence (2013) HDRip от Youtracker | Чистый звук скачать торрент бесплатно


    Улики / Evidence (2013) HDRip от Youtracker | Чистый звук скачать торрент бесплатно

    Опубликовал: Админ | Дата: 27-02-2015, 11:09 | .torrent скачали: 331

    Улики / Evidence

    Улики / Evidence (2013) HDRip от Youtracker | Чистый звук

    Страна: США
    Жанр: Триллер, Ужасы
    Год выпуска: 2013
    Продолжительность: 01:33:57
    Перевод: Профессиональный (дублированный) Чистый звук
    Cубтитры: нет

    Режиссер: Олатунде Осунсанми / Olatunde Osunsanmi

    В ролях: Рада Митчелл, Стивен Мойер, Торри ДеВито, Нолан Фанк, Дейл Дикки, Гарри Дж. Ленникс, Кэйтлин Стэйси, Амл Амин, Джон Хеймс Ньютон, Светлана Меткина

    Описание: В автобусе, направлявшемся в Лас-Вегас, совершено жестокое убийство. На месте преступления — ни одного уцелевшего. Только несколько трупов и хаотичный набор мобильных телефонов, карманных видеокамер и других устройств, оставшихся от потерпевших. Детектив, которому поручено расследование, с помощью сохранившихся записей пытается восстановить цепь загадочных событий, приведших к трагедии.

    Раздача от:



    Автор рипа: _Flash

    Качество: HDRip- исходник WEB-DL 1080p
    Формат видео: AVI

    Видео: 688x288, 23.976 fps, XviD build 65 ~ 2017 kbps avg, 0.425 bit/pixel
    Аудио: 48 kHz, AC3 Dolby Digital, 2/0 (L,R) ch, ~192 kbps

    MI

    Общий поток : 2219 Кбит/сек
    Программа кодирования : VirtualDubMod 1.5.10.3 | www.virtualdub-fr.org || (build 2550/release)
    Библиотека кодирования : VirtualDubMod build 2550/release

    Видео
    Идентификатор : 0
    Формат : MPEG-4 Visual
    Профиль формата : Advanced Simple@L5
    Параметр BVOP формата : 1
    Параметр QPel формата : Нет
    Параметр GMC формата : Без точки перехода
    Параметр матрицы формата : Выборочная
    Идентификатор кодека : XVID
    Идентификатор кодека/Подсказка : XviD
    Продолжительность : 1 ч. 33 м.
    Битрейт : 2017 Кбит/сек
    Ширина : 688 пикселей
    Высота : 288 пикселей
    Соотношение сторон : 2,40:1
    Частота кадров : 23,976 кадра/сек
    Цветовое пространство : YUV
    Субдискретизация насыщенности : 4:2:0
    Битовая глубина : 8 бит
    Тип развёртки : Прогрессивная
    Метод сжатия : С потерями
    Бит/(Пиксели*Кадры) : 0.425
    Размер потока : 1,32 Гбайт (91%)
    Библиотека кодирования : XviD 65

    Аудио
    Идентификатор : 1
    Формат : AC-3
    Формат/Информация : Audio Coding 3
    Расширение режима : CM (complete main)
    Параметр Endianness формата : Big
    Идентификатор кодека : 2000
    Продолжительность : 1 ч. 33 м.
    Вид битрейта : Постоянный
    Битрейт : 192 Кбит/сек
    Каналы : 2 канала
    Расположение каналов : Front: L R
    Частота : 48,0 КГц
    Битовая глубина : 16 бит
    Метод сжатия : С потерями
    Размер потока : 129 Мбайт (9%)
    Выравнивание : Разделение по промежуткам
    Продолжительность промежутка : 42 мс. (1,00 видеокадр)
    Время предзагрузки промежутка : 500 мс.


    Скриншоты





    Залил: Flash_
    Размер: 1.46 GB (1563283456 Bytes)
    Рейтинг →
     (голосов: 1, оценка 3/5, голосовать можно 1 раз )

    Другие торренты по теме:

  • Недостающие улики / Недостающие звенья / Missing Pieces (1983) SATRip | P2
  • Улики / Evidence (2013) WEB-DLRip | Звук с TS
  • Улики / Evidence (2013) BDRemux 1080p от MediaClub скачать через торрент бесплатно
  • Улики / Evidence (2013) BDRip-AVC от MediaClub | Лицензия скачать через торрент бесплатно
  • Улики / Evidence (2013) DVD9 | Лицензия скачать через торрент бесплатно
  • Улики / Evidence (2013) HDRip-AVC | D | Лицензия скачать через торрент бесплатно
  • Улики / Evidence (2013) BDRip от HQCLUB | Лицензия скачать через торрент бесплатно
  • Неопровержимые улики / Медное кольцо / The Big Brass Ring (1999) DVDRip | P скачать через торрент бесплатно


    • Комментарии (0):

      Информация

      Информация

        Посетители, находящиеся в группе Гости, не могут оставлять комментарии в данной новости.

        ↓ Меню




        ↓ Опрос

        А Вы добавили сайт в закладки?
        Да
        Не


        Top 10 за месяц (Фильмы)