.
Авторизация | Регистрация
Хочешь лучшие торренты? Добавь свой email!
Добавить
  • support: webmaster@servmix.org
» » Белль и Себастьян: Трилогия / Belle et Sebastien: Trilogie (2013-2017) BDRip-AVC | D | iTunes скачать торрент бесплатно


    Белль и Себастьян: Трилогия / Belle et Sebastien: Trilogie (2013-2017) BDRip-AVC | D | iTunes скачать торрент бесплатно

    Опубликовал: fregat | Дата: 22-10-2018, 11:00 | .torrent скачали: 0


    Белль и Себастьян: Трилогия / Belle et Sebastien: Trilogie (2013-2017) BDRip-AVC | D | iTunes
    Белль и Себастьян/Belle et Sebastien (2013) BDRip-AVC | D | iTunes
    Детально о кино
    Русское название: Белль и Себастьян
    Русское название в мировом прокате: Belle et Sebastien
    Создали в: 2013
    Категория жанра: Приключения, семейный, драма, экранизация
    Главный режиссер: Николя Ванье

    Актеры
    Феликс Боссюэ, Чеки Карио, Марго Шателье, Андреас Питшманн, Дмитрий Сторож, Юрбен Канселье, Мехди Эль Глауи

    Сюжет фильма

    Там, где заснеженные горы поднимаются почти до неба, а окружающая природа кажется девственной, разворачивается трогательная история неразлучной дружбы между дикой собакой и маленьким мальчиком – история Белль и Себастьяна. Небольшая идиллическая горная деревушка во французских Альпах, перед приходом немцев в годы второй мировой войны. Жители деревушки взволнованы появлением большой собаки, которая, по их мнению, способна лишь бесчинствовать в округе. В то время, как все местное сообщество устраивает настоящую охоту за псом, маленький мальчик-сирота Себастьян смотрит на внушающее всем страх животное другими глазами. Вместе они становятся неразлучными друзьями, но эта игра в прятки становится только началом большого приключения, которое им придётся вдвоём пережить. Но эти прятки с местными жителями не проходят бесследно – герои фильма Белль и Себастьян (Belle et Sebastien) оказываются вовлечены в захватывающее приключение, где им все придется решать сообща.

    Снималось в: Франция
    Время просмотра: 01: 38: 59
    Перевод текста: Профессиональный (дублированный) iTunes
    Файл
    Кодек для видео: H264
    Качество фильма: BDRip-AVC
    Информация о видео: 2 767 kb/s, MPEG4, 1040x442, 24fps, high L4.1, yuv420p
    Информация о звуке: Dolby AC3, 48000Hz, 6ch, 384kbps (Rus) iTunes
    Субтитры: Русские, Английские
    Скриншоты
    MediaInfo
    General
    Unique ID : 211103191088362450401393999215878752136 (0x9ED0FEE6AC128135BF70835EBB204788)
    Complete name : d: DownloadsБелль и Себастьян.1-3.BDRip-AVC.iTunes1. Белль и Себастьян.2013.BDRip-AVC.iTunes.mkv
    Format : Matroska
    Format version : Version 4/Version 2
    File size : 2.18 GiB
    Duration : 1 h 38 min
    Overall bit rate : 3 152 kb/s
    Encoded date : UTC 2018-10-21 10: 37: 44
    Writing application : mkvmerge v8.3.0 (;Over the Horizon;) 64bit
    Writing library : libebml v1.3.1 + libmatroska v1.4.2
    Video
    ID : 1
    Format : AVC
    Format/Info : Advanced Video Codec
    Format profile : High@L4.1
    Format settings : CABAC/16 Ref Frames
    Format settings, CABAC : Yes
    Format settings, ReFrames : 16 frames
    Codec ID : V_MPEG4/ISO/AVC
    Duration : 1 h 38 min
    Bit rate : 2 767 kb/s
    Width : 1 040 pixels
    Height : 442 pixels
    Display aspect ratio : 2.35: 1
    Frame rate mode : Constant
    Frame rate : 24.000 FPS
    Color space : YUV
    Chroma subsampling : 4: 2: 0
    Bit depth : 8 bits
    Scan type : Progressive
    Bits/(Pixel*Frame) : 0.251
    Stream size : 1.91 GiB (88%)
    Title : Белль и Себастьян/Belle et Sebastien.2013
    Writing library : x264 core 155 r2867+82 a249126 t_mod_Custom_2 8-bit@all X86
    Encoding settings : cabac=1/ref=16/deblock=1: -3: -1/analyse=0x3: 0x113/me=umh/subme=11/psy=1/fade_compensate=0.00/psy_rd=1.00: 0.00/mixed_ref=1/me_range=32/chroma_me=1/trellis=2/8x8dct=1/cqm=0/deadzone=21, 11/fast_pskip=0/chroma_qp_offset=-2/threads=12/lookahead_threads=3/sliced_threads=0/nr=0/decimate=0/interlaced=0/bluray_compat=0/constrained_intra=0/fgo=0/bframes=16/b_pyramid=2/b_adapt=2/b_bias=0/direct=3/weightb=1/open_gop=0/weightp=2/keyint=240/keyint_min=24/scenecut=40/intra_refresh=0/rc_lookahead=60/rc=2pass/mbtree=0/bitrate=2767/ratetol=1.0/qcomp=0.70/qpmin=0: 0: 0/qpmax=69: 69: 69/qpstep=4/cplxblur=20.0/qblur=0.5/vbv_maxrate=62500/vbv_bufsize=78125/nal_hrd=none/filler=0/ip_ratio=1.35/pb_ratio=1.25/aq=3: 0.90/aq-sensitivity=10.00/aq-factor=1.00: 1.00: 1.00/aq2=0/aq3=0
    Language : French
    Default : Yes
    Forced : No
    Color range : Limited
    Color primaries : BT.709
    Transfer characteristics : BT.709
    Matrix coefficients : BT.709
    Audio
    ID : 2
    Format : AC-3
    Format/Info : Audio Coding 3
    Codec ID : A_AC3
    Duration : 1 h 38 min
    Bit rate mode : Constant
    Bit rate : 384 kb/s
    Channel(s) : 6 channels
    Channel positions : Front: L C R, Side: L R, LFE
    Sampling rate : 48.0 kHz
    Frame rate : 31.250 FPS (1536 SPF)
    Bit depth : 16 bits
    Compression mode : Lossy
    Stream size : 272 MiB (12%)
    Title : Дубляж: AC-3; 16 bits 48 Khz; 5.1ch 384 Kbps; CBR (iTunes)
    Language : Russian
    Service kind : Complete Main
    Default : Yes
    Forced : No
    Text #1
    ID : 3
    Format : UTF-8
    Codec ID : S_TEXT/UTF8
    Codec ID/Info : UTF-8 Plain Text
    Duration : 1 h 36 min
    Bit rate : 48 b/s
    Count of elements : 706
    Stream size : 34.7 KiB (0%)
    Title : Cубтитры русские
    Language : Russian
    Default : No
    Forced : No
    Text #2
    ID : 4
    Format : UTF-8
    Codec ID : S_TEXT/UTF8
    Codec ID/Info : UTF-8 Plain Text
    Duration : 1 h 36 min
    Bit rate : 26 b/s
    Count of elements : 846
    Stream size : 18.9 KiB (0%)
    Title : Cубтитры английские
    Language : English
    Default : No
    Forced : No


    Белль и Себастьян, приключение продолжается/Belle et Sebastien, l;aventure continue (2015) BDRip-AVC | D | iTunes
    Детально о кино
    Русское название: Белль и Себастьян, приключение продолжается
    Русское название в мировом прокате: Belle et Sebastien, l;aventure continue
    Создали в: 2015
    Категория жанра: Приключения, семейный
    Главный режиссер: Кристиан Дюге

    Актеры
    Феликс Боссюэ, Чеки Карио, Тьерри Нёвик, Марго Чатели, Thylane Blondeau, Юрбен Канселье, Жозеф Малерба, Люди Букен, Фридерик Эпо

    Сюжет фильма

    Сентябрь 1945 года. Все во французской горной деревушке празднуют окончание войны. Себастьян вырос — ему уже 10 лет. Вместе с Белль они с нетерпением ждут возвращения Анджелины. Однако позже они узнают, что девушка попала в авиакатастрофу в самом сердце заальпийских лесов. Вся деревня потеряла надежду за исключением дедушки Себастьяна Цезаря, который знает Пьера — человека способного помочь им найти Анджелину. На пути к ее спасению мальчику и его собаке предстоит выдержать множество опасностей, пройти через тысячи испытаний и узнать тайну, которая изменит жизнь Белль и Себастьяна навсегда. Приключение продолжается…

    Снималось в: Франция
    Время просмотра: 01: 37: 28
    Перевод текста: Профессиональный (дублированный) iTunes
    Файл
    Кодек для видео: H264
    Качество фильма: BDRip-AVC
    Информация о видео: 2 815 kb/s, MPEG4, 1032x432, 24fps, high L4.1, yuv420p
    Информация о звуке: Dolby AC3, 48000Hz, 6ch, 384kbps (Rus) iTunes
    Субтитры: Русские, Английские
    Скриншоты
    MediaInfo
    General
    Unique ID : 217451563605333594515143249927086928707 (0xA397A5D4EB39807581A5BFF87C89F343)
    Complete name : d: DownloadsБелль и Себастьян.1-3.BDRip-AVC.iTunes2. Белль и Себастьян, приключение продолжается.2015.BDRip-AVC.iTunes.mkv
    Format : Matroska
    Format version : Version 2
    File size : 2.18 GiB
    Duration : 1 h 37 min
    Overall bit rate : 3 197 kb/s
    Encoded date : UTC 2018-08-23 08: 23: 21
    Writing application : mkvmerge v7.8.0 (;River Man;) 32bit built on Mar 27 2015 16: 18: 02
    Writing library : libebml v1.3.1 + libmatroska v1.4.2
    Video
    ID : 1
    Format : AVC
    Format/Info : Advanced Video Codec
    Format profile : High@L4.1
    Format settings : CABAC/16 Ref Frames
    Format settings, CABAC : Yes
    Format settings, ReFrames : 16 frames
    Codec ID : V_MPEG4/ISO/AVC
    Duration : 1 h 37 min
    Bit rate : 2 815 kb/s
    Width : 1 032 pixels
    Height : 432 pixels
    Display aspect ratio : 2.40: 1
    Frame rate mode : Constant
    Frame rate : 24.000 FPS
    Color space : YUV
    Chroma subsampling : 4: 2: 0
    Bit depth : 8 bits
    Scan type : Progressive
    Bits/(Pixel*Frame) : 0.263
    Stream size : 1.87 GiB (86%)
    Title : Белль и Себастьян, приключение продолжается/Belle et Sebastien, l;aventure continue.2015
    Writing library : x264 core 152 r2851kMod ba24899
    Encoding settings : cabac=1/ref=16/deblock=1: -2: -1/analyse=0x3: 0x113/me=umh/subme=11/psy=1/fade_compensate=0.50/psy_rd=1.06: 0.00/mixed_ref=1/me_range=32/chroma_me=1/trellis=2/8x8dct=1/cqm=0/deadzone=21, 11/fast_pskip=0/chroma_qp_offset=-2/threads=12/lookahead_threads=3/sliced_threads=0/nr=0/decimate=0/interlaced=0/bluray_compat=0/constrained_intra=0/bframes=14/b_pyramid=2/b_adapt=2/b_bias=0/direct=3/weightb=1/open_gop=0/weightp=2/keyint=240/keyint_min=24/scenecut=40/intra_refresh=0/rc_lookahead=60/rc=2pass/mbtree=1/bitrate=2815/ratetol=1.0/qcomp=0.75/qpmin=0/qpmax=69/qpstep=4/cplxblur=20.0/qblur=0.5/vbv_maxrate=62500/vbv_bufsize=78125/nal_hrd=none/filler=0/ip_ratio=1.20/aq=1: 0.60/zones=0, 1404, b=1.9/133674, 140360, q=26
    Language : French
    Default : Yes
    Forced : No
    Color range : Limited
    Color primaries : BT.709
    Transfer characteristics : BT.709
    Matrix coefficients : BT.709
    Audio
    ID : 2
    Format : AC-3
    Format/Info : Audio Coding 3
    Codec ID : A_AC3
    Duration : 1 h 37 min
    Bit rate mode : Constant
    Bit rate : 384 kb/s
    Channel(s) : 6 channels
    Channel positions : Front: L C R, Side: L R, LFE
    Sampling rate : 48.0 kHz
    Frame rate : 31.250 FPS (1536 SPF)
    Bit depth : 16 bits
    Compression mode : Lossy
    Stream size : 268 MiB (12%)
    Title : Дубляж: AC-3; 16 bits 48 Khz; 5.1ch 384 Kbps; CBR (iTunes)
    Language : Russian
    Service kind : Complete Main
    Default : Yes
    Forced : No
    Text #1
    ID : 3
    Format : UTF-8
    Codec ID : S_TEXT/UTF8
    Codec ID/Info : UTF-8 Plain Text
    Title : Субтитры русские (Lisok)
    Language : Russian
    Default : No
    Forced : No
    Text #2
    ID : 4
    Format : UTF-8
    Codec ID : S_TEXT/UTF8
    Codec ID/Info : UTF-8 Plain Text
    Title : Субтитры английские
    Language : English
    Default : No
    Forced : No


    Белль и Себастьян: Друзья навек/Belle et Sebastien 3, le dernier chapitre (2017) BDRip-AVC | D | iTunes
    Детально о кино
    Русское название: Белль и Себастьян: Друзья навек
    Русское название в мировом прокате: Belle et Sebastien 3, le dernier chapitre
    Создали в: 2017
    Категория жанра: Приключения, семейный
    Главный режиссер: Кловис Корнийяк

    Актеры
    Феликс Боссюэ, Чеки Карио, Кловис Корнийяк, Тьерри Нёвик, Марго Шателье, Андре Пенверн, Анн Бенуа, Лилу Фогли, Наэль Томас, Октав Боссюэ, Оливье Буана, Марти Берреби, Матео Бурдон, Бернадетт Криссохоидис, Пьер Коньон, Дэни Деон, Эдан Фуссе, Брайс Голдшмидт, Стефани Марго, Лора Матон, Френсис Пеллерин

    Сюжет фильма

    Себастьян стал почти совсем взрослым и даже почти не прогуливает школу. У Белль появилось очаровательное потомство. У Пьера и Анжелины тоже все неплохо, и даже старый Сезар ворчит меньше обычного. Всеобщую идиллию прерывает появление загадочного и злобного незнакомца. Он называет себя настоящим хозяином Белль и крадет ее вместе с щенятами. До сих пор Белль помогала Себастьяну выпутываться из любых авантюр, но теперь ему в одиночку предстоит побороться за своего лучшего друга. Получится у Себастьяна восстановить справедливость и вернуть Белль домой?

    Снималось в: Франция
    Время просмотра: 01: 30: 48
    Перевод текста: Профессиональный (дублированный) iTunes
    Файл
    Кодек для видео: H264
    Качество фильма: BDRip-AVC
    Информация о видео: 2 602 kb/s, MPEG4, 1060x444, 24fps, high L4.1, yuv420p
    Информация о звуке: Dolby AC3, 48000Hz, 6ch, 384kbps (Rus) iTunes
    Субтитры: Русские
    Скриншоты
    MediaInfo
    General
    Unique ID : 248583307181641008036519617966003498957 (0xBB03674B9E4740A8B828B27CE29CAFCD)
    Complete name : d: DownloadsБелль и Себастьян.1-3.BDRip-AVC.iTunes3. Белль и Себастьян. Друзья навек.2017.BDRip-AVC.iTunes.mkv
    Format : Matroska
    Format version : Version 4/Version 2
    File size : 1.89 GiB
    Duration : 1 h 30 min
    Overall bit rate : 2 981 kb/s
    Encoded date : UTC 2018-10-20 12: 51: 33
    Writing application : mkvmerge v8.3.0 (;Over the Horizon;) 64bit
    Writing library : libebml v1.3.1 + libmatroska v1.4.2
    Video
    ID : 1
    Format : AVC
    Format/Info : Advanced Video Codec
    Format profile : High@L4.1
    Format settings : CABAC/16 Ref Frames
    Format settings, CABAC : Yes
    Format settings, ReFrames : 16 frames
    Codec ID : V_MPEG4/ISO/AVC
    Duration : 1 h 30 min
    Bit rate : 2 602 kb/s
    Width : 1 060 pixels
    Height : 444 pixels
    Display aspect ratio : 2.40: 1
    Frame rate mode : Constant
    Frame rate : 24.000 FPS
    Color space : YUV
    Chroma subsampling : 4: 2: 0
    Bit depth : 8 bits
    Scan type : Progressive
    Bits/(Pixel*Frame) : 0.230
    Stream size : 1.65 GiB (87%)
    Title : Белль и Себастьян: Друзья навек/Belle et Sebastien 3, le dernier chapitre 2017
    Writing library : x264 core 152 r2851kMod ba24899
    Encoding settings : cabac=1/ref=16/deblock=1: -3: -3/analyse=0x3: 0x113/me=umh/subme=11/psy=1/fade_compensate=0.00/psy_rd=1.00: 0.00/mixed_ref=1/me_range=32/chroma_me=1/trellis=2/8x8dct=1/cqm=0/deadzone=21, 11/fast_pskip=0/chroma_qp_offset=-2/threads=12/lookahead_threads=3/sliced_threads=0/nr=0/decimate=0/interlaced=0/bluray_compat=0/constrained_intra=0/bframes=13/b_pyramid=2/b_adapt=2/b_bias=0/direct=3/weightb=1/open_gop=0/weightp=2/keyint=240/keyint_min=24/scenecut=40/intra_refresh=0/rc_lookahead=60/rc=2pass/mbtree=0/bitrate=2602/ratetol=1.0/qcomp=0.60/qpmin=0/qpmax=69/qpstep=4/cplxblur=20.0/qblur=0.5/vbv_maxrate=62500/vbv_bufsize=78125/nal_hrd=none/filler=0/ip_ratio=1.30/pb_ratio=1.25/aq=3: 0.90/zones=124119, 130742, q=30
    Language : French
    Default : Yes
    Forced : No
    Color range : Limited
    Color primaries : BT.709
    Transfer characteristics : BT.709
    Matrix coefficients : BT.709
    Audio
    ID : 2
    Format : AC-3
    Format/Info : Audio Coding 3
    Codec ID : A_AC3
    Duration : 1 h 30 min
    Bit rate mode : Constant
    Bit rate : 384 kb/s
    Channel(s) : 6 channels
    Channel positions : Front: L C R, Side: L R, LFE
    Sampling rate : 48.0 kHz
    Frame rate : 31.250 FPS (1536 SPF)
    Bit depth : 16 bits
    Compression mode : Lossy
    Stream size : 249 MiB (13%)
    Title : AC-3; 16 bits 48 Khz; 5.1ch 384 Kbps | Dub (iTunes)
    Language : Russian
    Service kind : Complete Main
    Default : Yes
    Forced : No
    Text
    ID : 3
    Format : UTF-8
    Codec ID : S_TEXT/UTF8
    Codec ID/Info : UTF-8 Plain Text
    Duration : 1 h 25 min
    Bit rate : 58 b/s
    Count of elements : 802
    Stream size : 36.8 KiB (0%)
    Title : Субтитры русские
    Language : Russian
    Default : No
    Forced : No


    Онлайн видео Белль и Себастьян: Трилогия


    Размер скачиваемого торрента: 6.25 GB (6707292283 Bytes)

    Белль и Себастьян: Трилогия/Belle et Sebastien: Trilogie (2013-2017) BDRip-AVC | D | iTunes
    Рейтинг →
     (голосов: 1, оценка 5/5, голосовать можно 1 раз )

    Другие торренты по теме:

  • Белль и Себастьян / Belle et Sebastien (2013) HDRip | L1 скачать через торрент бесплатно
  • Белль и Себастьян / Belle et Sebastien (2013) HDRip от CINEMANIA | L1 скачать через торрент бесплатно
  • Белль и Себастьян / Belle et Sebastien (2013) BDRip 1080p от CINEMANIA | L1 скачать через торрент бесплатно
  • Белль и Себастьян / Belle et Sebastien (2013) BDRip 720p от CINEMANIA | L1 скачать через торрент бесплатно
  • Белль и Себастьян / Belle et Sbastien (2013) BDRip от MegaPeer | P
  • Белль и Себастьян / Belle et Sebastien (2013) BDRip от MegaPeer | iTunes
  • Белль и Себастьян / Belle et Sebastien (2013) BDRip от MegaPeer | iTunes
  • Белль и Себастьян / Belle et Sebastien (2013) HDRip-AVC | L1 скачать через торрент бесплатно


    • Комментарии (0):

      Информация

      Информация

        Посетители, находящиеся в группе Гости, не могут оставлять комментарии в данной новости.

        ↓ Меню




        ↓ Опрос

        А Вы добавили сайт в закладки?
        Да
        Не


        Top 10 за месяц (Фильмы)