.
Авторизация | Регистрация
Хочешь лучшие торренты? Добавь свой email!
Добавить
  • support: webmaster@servmix.org
» » Гольциус и Пеликанья компания / Goltzius and the Pelican Company (2012) BDRip 1080p | P скачать торрент бесплатно


    Гольциус и Пеликанья компания / Goltzius and the Pelican Company (2012) BDRip 1080p | P скачать торрент бесплатно

    Опубликовал: fregat | Дата: 2-10-2018, 11:00 | .torrent скачали: 0


    Гольциус и Пеликанья компания / Goltzius and the Pelican Company (2012) BDRip 1080p | P
    Детально о кино
    Русское название: Гольциус и Пеликанья компания
    Русское название в мировом прокате: Goltzius and the Pelican Company
    Создали в: 2012
    Категория жанра: биография, история
    Главный режиссер: Питер Гринуэй

    Актеры
    Ф. Мюррэй Абрахам, Винсент Риотта, Халина Рейн, Ларс Эйдингер, Флавио Паренти, Анне Луизе Хассинг, Джулио Мария Беррути, Франческо Де Вито, Кейт Моран, Пиппо Дельбонно

    Сюжет фильма

    Зимой 1590 года в Кольмаре голландский типограф и гравёр Хендрик Гольциус обращается к маркизу Эльзасскому с просьбой о выделении средств на создание типографии, которая будет издавать иллюстрированные книги. Гольциус считает, что первые две книги, которые выйдут из-под печатного станка, следует преподнести Маркизу и его свите. Этими книгами должны стать иллюстрированное издание Ветхого Завета, содержащее шесть историй с эротическим содержанием, и иллюстрированное издание Метаморфоз Овидия, содержащее историю измен Юпитера. Чтобы ещё сильнее прельстить Маркиза, Гольциус и его типографские работники готовятся поставить перед свитой Маркиза серию спектаклей по этим эротическим рассказам. Маркиз, человек, известный широтой взглядов, гордящийся своей религиозной и культурной терпимостью, владелец большой библиотеки, с просвещённым интересом к книгам и новым технологиям печати, поддаётся искушению Гольциуса. В присутствии свидетелей Маркиз заявляет, что возместит производственные затраты Гольциуса и компании, при условии, что те будут держать его в состоянии распалённом и взволнованном. Гольциус и его Пеликанья компания печатных мастеров с их жёнами и любовницами из театрального мира приступают к работе…

    Снималось в: Великобритания, Нидерланды, Франция, Хорватия
    Киностудия: Kasander Film Company, Film and Music Entertainment (FME), Catherine Dussart Productions (CDP)
    Время просмотра: 01: 57: 07
    Перевод текста: Профессиональное (многоголосное) лицензия
    Файл
    Кодек для видео: x264
    Качество фильма: BDRip 1080p
    Информация о видео: MPEG-4 AVC, 11, 9 Мбит/с, 1920x1040, 24, 000 кадра/сек
    Информация о звуке 1: Русский (AC3, 6 ch, 384 Кбит/с)
    Информация о звуке 2: Английский (DTS, 6 ch, 1509 Кбит/с)
    Субтитры: Английские
    MI
    Общее
    Уникальный идентификатор : 337782832942028806815696900423157847678 (0xFE1E9B75CDE467560E16A6323540967E)
    Полное имя : E: новые фильмы 54Goltzius.and.the.Pelican.Company.2011.1080p.BluRay.x264-NODLABSGoltzius.and.the.Pelican.Company.2011.BDRip 1080p.mkv
    Формат : Matroska
    Версия формата : Version 4/Version 2
    Размер файла : 11, 2 Гбайт
    Продолжительность : 1 ч. 57 м.
    Общий поток : 13, 7 Мбит/сек
    Название фильма : Goltzius.and.the.Pelican.Company.2011.BDRip 1080p
    Дата кодирования : UTC 2018-09-29 16: 28: 19
    Программа кодирования : mkvmerge v22.0.0 (;At The End Of The World;) 64-bit
    Библиотека кодирования : libebml v1.3.5 + libmatroska v1.4.8
    DURATION : 01: 57: 07.424000000
    NUMBER_OF_FRAMES : 219607
    NUMBER_OF_BYTES : 337316352
    _STATISTICS_WRITING_APP : mkvmerge v22.0.0 (;At The End Of The World;) 64-bit
    _STATISTICS_WRITING_DATE_UTC : 2018-09-29 16: 28: 19
    _STATISTICS_TAGS : BPS DURATION NUMBER_OF_FRAMES NUMBER_OF_BYTES
    Видео
    Идентификатор : 1
    Формат : AVC
    Формат/Информация : Advanced Video Codec
    Профиль формата : High@L4.1
    Параметр CABAC формата : Да
    Параметр ReFrames формата : 4 кадра
    Идентификатор кодека : V_MPEG4/ISO/AVC
    Продолжительность : 1 ч. 57 м.
    Битрейт : 11, 9 Мбит/сек
    Ширина : 1920 пикселей
    Высота : 1040 пикселей
    Соотношение сторон : 1, 85: 1
    Режим частоты кадров : Постоянный
    Частота кадров : 24, 000 кадра/сек
    Цветовое пространство : YUV
    Субдискретизация насыщенности : 4: 2: 0
    Битовая глубина : 8 бит
    Тип развёртки : Прогрессивная
    Бит/(Пиксели*Кадры) : 0.247
    Размер потока : 9, 47 Гбайт (84%)
    Заголовок : Goltzius.and.the.Pelican.Company.2011.BDRip 1080p
    Библиотека кодирования : x264 core 142 r2491 24e4fed
    Настройки программы : cabac=1/ref=4/deblock=1: -3: -3/analyse=0x3: 0x113/me=umh/subme=8/psy=1/psy_rd=1.00: 0.00/mixed_ref=1/me_range=16/chroma_me=1/trellis=1/8x8dct=1/cqm=0/deadzone=21, 11/fast_pskip=1/chroma_qp_offset=-2/threads=12/lookahead_threads=2/sliced_threads=0/nr=0/decimate=1/interlaced=0/bluray_compat=0/constrained_intra=0/bframes=3/b_pyramid=2/b_adapt=2/b_bias=0/direct=3/weightb=1/open_gop=0/weightp=2/keyint=240/keyint_min=24/scenecut=40/intra_refresh=0/rc_lookahead=50/rc=2pass/mbtree=1/bitrate=11850/ratetol=1.0/qcomp=0.60/qpmin=0/qpmax=69/qpstep=4/cplxblur=20.0/qblur=0.5/ip_ratio=1.40/aq=1: 1.00
    Язык : English
    Default : Да
    Forced : Нет
    DURATION : 01: 57: 07.417000000
    NUMBER_OF_FRAMES : 168658
    NUMBER_OF_BYTES : 10408129299
    _STATISTICS_WRITING_APP : mkvmerge v22.0.0 (;At The End Of The World;) 64-bit
    _STATISTICS_WRITING_DATE_UTC : 2018-09-29 16: 28: 19
    _STATISTICS_TAGS : BPS DURATION NUMBER_OF_FRAMES NUMBER_OF_BYTES
    Аудио #1
    Идентификатор : 2
    Формат : AC-3
    Формат/Информация : Audio Coding 3
    Расширение режима : CM (complete main)
    Параметр Endianness формата : Big
    Идентификатор кодека : A_AC3
    Продолжительность : 1 ч. 57 м.
    Вид битрейта : Постоянный
    Битрейт : 384 Кбит/сек
    Каналы : 6 каналов
    Расположение каналов : Front: L C R, Side: L R, LFE
    Частота : 48, 0 КГц
    Битовая глубина : 16 бит
    Метод сжатия : С потерями
    Размер потока : 322 Мбайт (3%)
    Заголовок : Профессиональное (многоголосное) лицензия
    Язык : Russian
    Default : Да
    Forced : Да
    Аудио #2
    Идентификатор : 3
    Формат : DTS
    Формат/Информация : Digital Theater Systems
    Режим : 16
    Параметр Endianness формата : Big
    Идентификатор кодека : A_DTS
    Продолжительность : 1 ч. 57 м.
    Вид битрейта : Постоянный
    Битрейт : 1509 Кбит/сек
    Каналы : 6 каналов
    Расположение каналов : Front: L C R, Side: L R, LFE
    Частота : 48, 0 КГц
    Битовая глубина : 24 бит
    Метод сжатия : С потерями
    Размер потока : 1, 23 Гбайт (11%)
    Заголовок : Original (Eng)
    Язык : English
    Default : Нет
    Forced : Нет
    Текст
    Идентификатор : 4
    Формат : UTF-8
    Идентификатор кодека : S_TEXT/UTF8
    Идентификатор кодека/Информация : UTF-8 Plain Text
    Язык : English
    Default : Нет
    Forced : Нет
    Меню
    00: 00: 00.000 : en: 00: 00: 00.000
    00: 09: 57.833 : en: 00: 09: 57.833
    00: 19: 25.458 : en: 00: 19: 25.458
    00: 28: 45.542 : en: 00: 28: 45.542
    00: 37: 57.292 : en: 00: 37: 57.292
    00: 50: 50.333 : en: 00: 50: 50.333
    01: 01: 04.417 : en: 01: 01: 04.417
    01: 12: 37.125 : en: 01: 12: 37.125
    01: 25: 49.083 : en: 01: 25: 49.083
    01: 37: 10.958 : en: 01: 37: 10.958
    01: 45: 31.458 : en: 01: 45: 31.458
    01: 54: 36.750 : en: 01: 54: 36.750

    Скриншоты


    Онлайн видео Гольциус и Пеликанья компания


    Размер скачиваемого торрента: 11.24 GB (12073519101 Bytes)

    Гольциус и Пеликанья компания/Goltzius and the Pelican Company (2012) BDRip 1080p | P
    Рейтинг →
     (голосов: 1, оценка 3/5, голосовать можно 1 раз )

    Другие торренты по теме:

  • Гольциус и Пеликанья компания / Goltzius and the Pelican Company (2012) WEBRip | P
  • Гольциус и Пеликанья компания / Goltzius and the Pelican Company (2012) DVDRip | Лицензия скачать через торрент бесплатно
  • Гольциус и Пеликанья компания / Goltzius and the Pelican Company (2012) DVDRip-AVC


    • Комментарии (0):

      Информация

      Информация

        Посетители, находящиеся в группе Гости, не могут оставлять комментарии в данной новости.

        ↓ Меню




        ↓ Опрос

        А Вы добавили сайт в закладки?
        Да
        Не


        Top 10 за месяц (Фильмы)