.
Авторизация | Регистрация
Хочешь лучшие торренты? Добавь свой email!
Добавить
  • support: webmaster@servmix.org
» » Как выйти замуж за миллионера (2012) DVDRip от Youtracker | лицензия скачать торрент бесплатно


    Как выйти замуж за миллионера (2012) DVDRip от Youtracker | лицензия скачать торрент бесплатно

    Опубликовал: Админ | Дата: 27-02-2015, 11:09 | .torrent скачали: 368

    Как выйти замуж за миллионера (2012) DVDRip от Youtracker | лицензия
    Год выпуска: 2012
    Производство: Россия, Кинокомпания Магнум по заказу МАРС МЕДИА
    Жанр: мелодрама, комедия
    Продолжительность: 4 ~ 00:46:00
    Субтитры: нет

    Режиссёр: Наталья Хлопецкая

    В ролях: Юлия Кокрятская, Павел Прилучный, Александра Тюфтей, Роман Курцын, Дмитрий Марьянов, Людмила Чурсина, Александр Михайлов, Любовь Толкалина, Виктор Добронравов, Анастасия Новикова...

    Описание: Женя Красилова — решительная и бескомпромиссная личность, она мечтает заниматься серьёзной журналистикой и, как минимум, спасти мир, донося до читателей сокровенную правду жизни. Однако пока что ей приходится подрабатывать в сомнительном жёлтом издании и сочинять скандальные небылицы о жизни звёзд. Однажды из-под её едкого пера выходит статья Как выйти замуж за миллионера, в которой она крепко задевает известного столичного предпринимателя — Леонида Раевского и его подругу. Попавшей под горячую руку Жене приходится заключить пари с оскорблённым олигархом. В течение месяца она должна доказать, что действительно разбирается в материале, и добиться того, чтобы какой-нибудь миллионер сделал ей предложение.




    Качество: DVDRip (DVD9 R5)
    Формат: AVI

    Видео: 720x400 (16:9), 25.000 fps, XViD ~ 2000 kbps avg, 0.278 bit/pixel
    Аудио: 48 kHz, АС3 6 ch, 448 kbps, русский

    Раздача от:
    MediaInfo

    Общее
    Полное имя : Kak.vyiti.zamuj.za.millionera.2012.DVDRip_Youtracker_by_avproh1.avi
    Формат : AVI
    Формат/Информация : Audio Video Interleave
    Размер файла : 809 Мбайт
    Продолжительность : 46 м.
    Общий поток : 2458 Кбит/сек
    Программа кодирования : VirtualDubMod 1.5.10.3 | www.virtualdub-fr.org || (build 2550/release)
    Библиотека кодирования : VirtualDubMod build 2550/release

    Видео
    Идентификатор : 0
    Формат : MPEG-4 Visual
    Профиль формата : Advanced Simple@L5
    Параметр BVOP формата : 1
    Параметр QPel формата : Нет
    Параметр GMC формата : Без точки перехода
    Параметр матрицы формата : Выборочная
    Идентификатор кодека : XVID
    Идентификатор кодека/Подсказка : XviD
    Продолжительность : 46 м.
    Битрейт : 2000 Кбит/сек
    Ширина : 720 пикселей
    Высота : 400 пикселей
    Соотношение сторон : 16:9
    Частота кадров : 25,000 кадров/сек
    Цветовое пространство : YUV
    Субдискретизация насыщенности : 4:2:0
    Битовая глубина : 8 бит
    Тип развёртки : Прогрессивная
    Метод сжатия : С потерями
    Бит/(Пиксели*Кадры) : 0.278
    Размер потока : 658 Мбайт (81%)
    Библиотека кодирования : XviD 65

    Аудио
    Идентификатор : 1
    Формат : AC-3
    Формат/Информация : Audio Coding 3
    Расширение режима : CM (complete main)
    Параметр Endianness формата : Big
    Идентификатор кодека : 2000
    Продолжительность : 46 м.
    Вид битрейта : Постоянный
    Битрейт : 448 Кбит/сек
    Каналы : 6 каналов
    Расположение каналов : Front: L C R, Side: L R, LFE
    Частота : 48,0 КГц
    Битовая глубина : 16 бит
    Метод сжатия : С потерями
    Размер потока : 147 Мбайт (18%)
    Выравнивание : Разделение по промежуткам
    Продолжительность промежутка : 40 мс. (1,00 видеокадр)
    Время предзагрузки промежутка : 500 мс.

    Скриншоты:



    Залил: avproh
    Размер: 3.16 GB (3392010240 Bytes)
    Рейтинг →
     (голосов: 1, оценка 5/5, голосовать можно 1 раз )

    Другие торренты по теме:

  • Как выйти замуж за миллионера / How to Marry a Millionaire (1953) BDRip от ELmusic
  • Как выйти замуж за миллионера (2012) WEB-DLRip 1080p
  • Как выйти замуж за миллионера (2012) WEB-DLRip от Unitracker
  • Как выйти замуж за миллионера (2012) WEBDLRip-AVC
  • Как выйти замуж за миллионера (2012) WEBDLRip 720p
  • Евгений Грин - Как выйти в Астрал (2013) CAMRip
  • Как выйти замуж за миллионера (2012) DVDRip-AVC от Youtracker | лицензия
  • Как выйти замуж за миллионера (2012) DVD9 R5 от Youtracker | лицензия


    • Комментарии (0):

      Информация

      Информация

        Посетители, находящиеся в группе Гости, не могут оставлять комментарии в данной новости.

        ↓ Меню




        ↓ Опрос

        А Вы добавили сайт в закладки?
        Да
        Не


        Top 10 за месяц (Фильмы)