.
Авторизация | Регистрация
Хочешь лучшие торренты? Добавь свой email!
Добавить
  • support: webmaster@servmix.org


Легавый (2012) SATRip от Youtracker скачать торрент бесплатно

Опубликовал: Админ | Дата: 27-02-2015, 11:09 | .torrent скачали: 306

Легавый (2012) SATRip от Youtracker

Год выпуска: 2012
Производство: Россия / Star Media
Жанр: детектив
Продолжительность: 00:45:00 / серия
Режиссёр: Рустам Уразаев, Сергей Артимович

В ролях: Эдуард Флёров, Михаил Павлик, Николай Козак, Оксана Гуляева, Анастасия Макеева, Елена Коровчук, Анатолий Кот, Игорь Филиппов, Александр Резалин, Михаил Горевой...

Описание: 1948 год. Бывший фронтовой разведчик, старший лейтенант Юрий Козырев, попавший в плен в последние дни войны и получивший за это срок, выходит из лагеря полностью оправданным и восстановленным в правах. Он едет в свой родной рабочий городок под Москвой, но возвращение не приносит ему большой радости. Юрий узнает, что отец пропал без вести на фронте, мать умерла, а любимая девушка Лариса вышла замуж за другого… На завод, где он до войны работал инженером, с политической статьей его, пусть и полностью реабилитированного, обратно не возьмут. Выбирать не приходится — Юрий устраивается сторожем. И однажды на склад, который Козырев охраняет, бандиты совершают налет. Главным подозреваемым становится Юрий. На него начинается настоящая охота. Он скрывается от милиции и принимает решение первым найти и обезвредить настоящего организатора ограбления. В награду за поимку преступника сам Лаврентий Берия распоряжается назначить Козырева на должность оперуполномоченного уголовного розыска в местное отделение милиции...
Как будут развиваться события, чем заполнятся опасные будни опера, с какими трудностями послевоенного быта придется столкнуться героям фильма и как сложатся их непростые личные отношения – смотрите в новом остросюжетном сериале Легавый на НТВ!





Качество: SATRip (DVB)
Формат: AVI

Видео: 720x400 (16:9), 25.000 fps, XViD ~ 1794 kbps avg, 0.249 bit/pixel
Аудио: 48 kHz, АС3 2 ch, 192 kbps, русский

Раздача от:
MediaInfo

Общее
Полное имя : Legavyi.2012.O.SATRip_Youtracker_by_avproh?1.avi
Формат : AVI
Формат/Информация : Audio Video Interleave
Размер файла : 638 Мбайт
Продолжительность : 44 м.
Общий поток : 1996 Кбит/сек
Программа кодирования : VirtualDubModRus 1.5.10.2 (build 2542/release)
Библиотека кодирования : VirtualDubMod build 2542/release

Видео
Идентификатор : 0
Формат : MPEG-4 Visual
Профиль формата : Advanced Simple@L5
Параметр BVOP формата : 1
Параметр QPel формата : Нет
Параметр GMC формата : Без точки перехода
Параметр матрицы формата : Выборочная
Идентификатор кодека : XVID
Идентификатор кодека/Подсказка : XviD
Продолжительность : 44 м.
Битрейт : 1794 Кбит/сек
Ширина : 720 пикселей
Высота : 400 пикселей
Соотношение сторон : 16:9
Частота кадров : 25,000 кадров/сек
Цветовое пространство : YUV
Субдискретизация насыщенности : 4:2:0
Битовая глубина : 8 бит
Тип развёртки : Прогрессивная
Метод сжатия : С потерями
Бит/(Пиксели*Кадры) : 0.249
Размер потока : 573 Мбайт (90%)
Библиотека кодирования : XviD 65

Аудио
Идентификатор : 1
Формат : AC-3
Формат/Информация : Audio Coding 3
Расширение режима : CM (complete main)
Параметр Endianness формата : Big
Идентификатор кодека : 2000
Продолжительность : 44 м.
Вид битрейта : Постоянный
Битрейт : 192 Кбит/сек
Каналы : 2 канала
Расположение каналов : Front: L R
Частота : 48,0 КГц
Битовая глубина : 16 бит
Метод сжатия : С потерями
Размер потока : 61,3 Мбайт (10%)
Выравнивание : Разделение по промежуткам
Продолжительность промежутка : 40 мс. (1,00 видеокадр)
Время предзагрузки промежутка : 500 мс.

Скриншоты:



Сравнение с релизом КинозалSAT:

http://rutor.org/torrent/244666/

http://screenshotcomparison.com/comparison/32555 - по бокам сильный перекроп, квадраты, четкость кадра

Залил: avproh
Размер: 14.96 GB (16062754816 Bytes)
Рейтинг →
 (голосов: 1, оценка 3/5, голосовать можно 1 раз )

Другие торренты по теме:

  • Легавый (2012) DVВRip-AVC
  • Легавый (2012) SATRip от КинозалSAT
  • Легавый (2012) SATRip-AVC от Youtracker
  • Легавый / Коп / Copper (2013 ) HDTVRip
  • Коп / Легавый / Copper (2012) HDRip | P
  • Коп / Легавый / Copper (2013) HDTVRip | L2
  • Легавый / Коп / Copper (2013) WEB-DL 720p от NewStudio
  • Легавый / Коп / Copper (2012-2013) WEB-DL 1080p от MediaClub | P скачать через торрент бесплатно


    • Комментарии (0):

      Информация

      Информация

        Посетители, находящиеся в группе Гости, не могут оставлять комментарии в данной новости.

        ↓ Меню




        ↓ Опрос

        А Вы добавили сайт в закладки?
        Да
        Не


        Top 10 за месяц (Фильмы)