.
Авторизация | Регистрация
Хочешь лучшие торренты? Добавь свой email!
Добавить
  • support: webmaster@servmix.org


Взятка (2018) WEBRip 1080p скачать торрент бесплатно

Опубликовал: fregat | Дата: 9-09-2018, 11:00 | .torrent скачали: 35


Взятка (2018) WEBRip 1080p
Детально о кино
Русское название: Взятка
Создали в: 2018
Категория жанра: Комедия, короткометражный
Главный режиссер: Алексей Харитонов

В ролях
Михаил Трухин, Сергей Бурунов, Николай Ковбас, Сергей Анненков, Александр Ревенко
Описание:
Гражданин предлагает следователю взятку, чтобы закрыть дело… о взятке. Но события разворачиваются непредсказуемо.

Создали в: Россия/FakePublish, Life Is Short, PinUp Production
Дата премьеры в России: 4 июня 2018
Время просмотра: 00: 12: 17
Перевод текста: Не требуется (русский)
Субтитры: Отсутствуют
Файл
Тип видео: MKV
Качество фильма видео: WEBRip 1080p
Информация о видео: H.264/AVC, 1920x816, ~6400 Kbps
Информация о звуке: AAC LC, 48.0 KHz, 2 ch, 192 Kbps
M/I
Общее
Уникальный идентификатор : 206050771150504735521051577844156513340 (0x9B03EF5D9ED23AE89F29E358271EBC3C)
Полное имя : E: NNMВзяткаVzyatka 2018 1080p-LQ.mkv
Формат : Matroska
Версия формата : Version 4/Version 2
Размер файла : 579 Мбайт
Продолжительность : 12 м. 17 с.
Общий поток : 6593 Кбит/сек
Дата кодирования : UTC 2018-09-08 12: 40: 25
Программа кодирования : mkvmerge v9.2.0 (;Photograph;) 64bit
Библиотека кодирования : libebml v1.3.3 + libmatroska v1.4.4
Видео
Идентификатор : 1
Формат : AVC
Формат/Информация : Advanced Video Codec
Профиль формата : High@L4
Настройки формата : CABAC/4 Ref Frames
Параметр CABAC формата : Да
Параметр RefFrames формата : 4 кадра
Идентификатор кодека : V_MPEG4/ISO/AVC
Продолжительность : 12 м. 17 с.
Битрейт : 6400 Кбит/сек
Ширина : 1920 пикселей
Высота : 816 пикселей
Соотношение сторон : 2, 35: 1
Режим частоты кадров : Постоянный
Частота кадров : 23, 976 (24000/1001) кадра/сек
Цветовое пространство : YUV
Субдискретизация насыщенности : 4: 2: 0
Битовая глубина : 8 бит
Тип развёртки : Прогрессивная
Бит/(Пиксели*Кадры) : 0.170
Размер потока : 562 Мбайт (97%)
Библиотека кодирования : x264 core 155 r2901M 7d0ff22
Настройки программы : cabac=1/ref=3/deblock=1: -2: -2/analyse=0x3: 0x113/me=hex/subme=7/psy=1/psy_rd=1.00: 0.20/mixed_ref=1/me_range=16/chroma_me=1/trellis=1/8x8dct=1/cqm=0/deadzone=21, 11/fast_pskip=1/chroma_qp_offset=-3/threads=13/lookahead_threads=2/sliced_threads=0/nr=0/decimate=1/interlaced=0/bluray_compat=0/constrained_intra=0/bframes=3/b_pyramid=2/b_adapt=2/b_bias=0/direct=3/weightb=1/open_gop=0/weightp=2/keyint=10/keyint_min=6/scenecut=40/intra_refresh=0/rc_lookahead=10/rc=2pass/mbtree=1/bitrate=6400/ratetol=1.0/qcomp=0.60/qpmin=0/qpmax=69/qpstep=4/cplxblur=20.0/qblur=0.5/ip_ratio=1.40/aq=1: 1.00
Язык : Russian
Default : Да
Forced : Нет
Аудио
Идентификатор : 2
Формат : AAC
Формат/Информация : Advanced Audio Codec
Профиль формата : LC
Идентификатор кодека : A_AAC-2
Продолжительность : 12 м. 17 с.
Битрейт : 192 Кбит/сек
Каналы : 2 канала
Расположение каналов : Front: L R
Частота : 48, 0 КГц
Частота кадров : 46, 875 кадров/сек (1024 SPF)
Метод сжатия : С потерями
Размер потока : 16, 9 Мбайт (3%)
Язык : Russian
Default : Да
Forced : Нет
Скриншоты

Размер скачиваемого торрента: 579.50 MB (607645528 Bytes)

Взятка (2018) WEBRip 1080p
Рейтинг →
 (голосов: 1, оценка 3/5, голосовать можно 1 раз )

Другие торренты по теме:



    Комментарии (0):

    Информация

    Информация

      Посетители, находящиеся в группе Гости, не могут оставлять комментарии в данной новости.

      ↓ Меню




      ↓ Опрос

      А Вы добавили сайт в закладки?
      Да
      Не


      Top 10 за месяц (Фильмы)