.
Авторизация | Регистрация
Хочешь лучшие торренты? Добавь свой email!
Добавить
  • support: webmaster@servmix.org
» » Легкие деньги / Free money (1998) WEB-DLRip от Leon-masl скачать торрент бесплатно


    Легкие деньги / Free money (1998) WEB-DLRip от Leon-masl скачать торрент бесплатно

    Опубликовал: fregat | Дата: 27-02-2015, 11:09 | .torrent скачали: 437

    Легкие деньги / Free money (1998) WEB-DLRip от Leon-masl

    Информация о фильме
    Название: Легкие деньги
    Оригинальное название: Free money
    Год выхода: 1998
    Жанр: Комедия, Криминал
    Режиссер: Ив Симоне / Iv Simone
    В ролях: Марлон Брандо , Дональд Сазерленд , Чарли Шин , Томас Хейден Черч , Мира Сорвино , Мартин Шин , Дэвид Аркетт , Жан Пьерр Бержерон , Реми Жирар.

    О фильме:
    Простых парней Бада (Чарли Шин) и Ларри (Томас Хейден Черч),угораздило жениться на дочерях грозного начальника тюрьмы по кличке Швед (Марлон Брандо). Очень быстро Ларри и Баду просто осточертело жить рядом с тестем , под его полным контролем. На пути к свободе они решили ограбить поезд,перевозящий огромную сумму денег.




    Страна: Канада
    Продолжительность: 01:34:08
    Перевод: Профессиональный (многоголосый закадровый)

    Файл
    Кодек: Xvid
    Качество: WEB-DLRip
    Видео: 720x400, 23.976 fps, ~2017 kbps
    Звук: AC3, 2 ch, 192.00 kbps
    MI
    Общее
    Полное имя : Free.Money.1998.WEB-DLRip.avi
    Формат : AVI
    Формат/Информация : Audio Video Interleave
    Размер файла : 1,46 Гбайт
    Продолжительность : 1 ч. 34 м.
    Общий поток : 2219 Кбит/сек
    Программа кодирования : VirtualDubMod 1.5.10.2 (build 2542/release)
    Библиотека кодирования : VirtualDubMod build 2542/release

    Видео
    Идентификатор : 0
    Формат : MPEG-4 Visual
    Профиль формата : Advanced Simple@L5
    Параметр BVOP формата : 1
    Параметр QPel формата : Нет
    Параметр GMC формата : Без точки перехода
    Параметр матрицы формата : Выборочная
    Идентификатор кодека : XVID
    Идентификатор кодека/Подсказка : XviD
    Продолжительность : 1 ч. 34 м.
    Битрейт : 2017 Кбит/сек
    Ширина : 720 пикс.
    Высота : 400 пикс.
    Соотношение сторон : 16:9
    Частота кадров : 23,976 кадр/сек
    Цветовое пространство : YUV
    Подвыборка цветности : 4:2:0
    Битовая глубина : 8 бит
    Тип развёртки : Прогрессивная
    Метод сжатия : С потерями
    Бит/(Пиксели*Кадры) : 0.292
    Размер потока : 1,33 Гбайт (91%)
    Библиотека кодирования : XviD 73

    Аудио
    Идентификатор : 1
    Формат : AC-3
    Формат/Информация : Audio Coding 3
    Расширение режима : CM (complete main)
    Идентификатор кодека : 2000
    Продолжительность : 1 ч. 34 м.
    Вид битрейта : Постоянный
    Битрейт : 192 Кбит/сек
    Канал(ы) : 2 канала(ов)
    Расположение каналов : Front: L R
    Частота : 48,0 КГц
    Битовая глубина : 16 бит
    Метод сжатия : С потерями
    Размер потока : 129 Мбайт (9%)
    Выравнивание : Разделение по промежуткам
    Продолжительность промежутка : 42 мс. (1,00 видеокадр)
    Время предзагрузки промежутка : 500 ms
    Скриншоты


    Релиз от: Leon-masl
    Залил: leon-masl
    Размер: 1.46 GB (1566208000 Bytes)
    Рейтинг →
     (голосов: 1, оценка 3/5, голосовать можно 1 раз )

    Другие торренты по теме:

  • Легкие деньги / Good People (2014) BDRip 1080p от KinoRay | L2
  • Легкие деньги / Хорошие люди / Good People (2014) HDRip от Scarabey | L2 скачать через торрент бесплатно
  • Хорошие люди / Легкие деньги / Good People (2014) BDRip 720p от Leonardo and Scarabey | L2 скачать через торрент бесплатно
  • Легкие деньги / Хорошие люди / Good People (2014) BDRip-AVC от MediaClub | D
  • Легкие деньги / Хорошие люди / Good People (2014) BDRip 720p от MediaClub | D
  • Легкие деньги / Good People (2014) HDRip | D
  • Легкие деньги / Хорошие люди / Good People (2014) BDRip от MediaClub | D
  • Легкие деньги / Good People (2014) BDRip 1080p от MediaClub | D


    • Комментарии (0):

      Информация

      Информация

        Посетители, находящиеся в группе Гости, не могут оставлять комментарии в данной новости.

        ↓ Меню




        ↓ Опрос

        А Вы добавили сайт в закладки?
        Да
        Не


        Top 10 за месяц (Фильмы)