.
Авторизация | Регистрация
Хочешь лучшие торренты? Добавь свой email!
Добавить
  • support: webmaster@servmix.org
» » Коммандо / Commando (2013) DVDRip | Sub скачать торрент бесплатно


    Коммандо / Commando (2013) DVDRip | Sub скачать торрент бесплатно

    Опубликовал: Админ | Дата: 27-02-2015, 11:09 | .torrent скачали: 355

    Коммандо / Commando (2013) DVDRip | Sub

    Информация о фильме
    Название: Коммандо
    Оригинальное название: Commando
    Год выхода: 2013
    Жанр: Боевик
    Режиссер: Дилип Гхош / Dilip Ghosh
    В ролях: Ом Пракаш, Видьют Джамвал, Пуджа Чопра, Джайдип Ахлават, Сукхвиндер Чахал, Даршан Джаривала

    О фильме:
    Потерпев крушение над китайской территорией, капитан Каранвир Догра, попадает в плен. Индийское правительство отрицает его существование, так как боится политического скандала. Каран бежит от конвоя и отправляется в Химачал Прадеш, на границе Лепча, намереваясь добраться до своей базы в Патанкоте. Пересекая границу с Пенджабом, он встречает девушку, Симрит, которая просит у него защиты...
    Фрагмент субтитров

    1
    00:00:40,446 -- 00:00:47,904
    Релиз-группа сайта bollywoodtime.ru
    Перевод и редакция субтитров: tonyvika
    2
    00:01:43,905 -- 00:01:44,905
    Поехали!
    3
    00:01:47,450 -- 00:01:49,441
    Сэр, вертолет упал на территории Китая.
    4
    00:01:49,585 -- 00:01:51,485
    Китайцы нашли тело пилота...
    5
    00:01:51,587 -- 00:01:53,555
    ..но, никаких следов Каранвира Догра.
    6
    00:01:53,623 -- 00:01:55,152
    Возможно китайские военные арестовали его.
    7
    00:01:55,425 -- 00:01:57,386
    Проинформируйте китайскую сторону об аварии.

    MediaInfo

    Формат : AVI
    Формат/Информация : Audio Video Interleave
    Размер файла : 1,45 Гбайт
    Продолжительность : 2 ч. 4 м.
    Общий поток : 1671 Кбит/сек
    Программа кодирования : VirtualDubMod 1.5.10.3 | www.virtualdub-fr.org || (build 2550/release)
    Библиотека кодирования : VirtualDubMod build 2550/release
    Видео
    Идентификатор : 0
    Формат : MPEG-4 Visual
    Профиль формата : Advanced Simple@L5
    Параметр BVOP формата : 2
    Параметр QPel формата : Нет
    Параметр GMC формата : Без точки перехода
    Параметр матрицы формата : Default (H.263)
    Идентификатор кодека : XVID
    Идентификатор кодека/Подсказка : XviD
    Продолжительность : 2 ч. 4 м.
    Битрейт : 1214 Кбит/сек
    Ширина : 720 пикселей
    Высота : 304 пикселя
    Соотношение сторон : 2,35:1
    Частота кадров : 23,976 кадра/сек
    Цветовое пространство : YUV
    Субдискретизация насыщенности : 4:2:0
    Битовая глубина : 8 бит
    Тип развёртки : Прогрессивная
    Метод сжатия : С потерями
    Бит/(Пиксели*Кадры) : 0.231
    Размер потока : 1,06 Гбайт (73%)
    Библиотека кодирования : XviD 1.2.1 (UTC 2008-12-04)
    Аудио
    Идентификатор : 1
    Формат : AC-3
    Формат/Информация : Audio Coding 3
    Расширение режима : CM (complete main)
    Параметр Endianness формата : Big
    Идентификатор кодека : 2000
    Продолжительность : 2 ч. 4 м.
    Вид битрейта : Постоянный
    Битрейт : 448 Кбит/сек
    Каналы : 6 каналов
    Расположение каналов : Front: L C R, Side: L R, LFE
    Частота : 48,0 КГц
    Битовая глубина : 16 бит
    Метод сжатия : С потерями
    Размер потока : 399 Мбайт (27%)
    Выравнивание : Разделение по промежуткам
    Продолжительность промежутка : 42 мс. (1,00 видеокадр)
    Время предзагрузки промежутка : 500 мс.




    Страна: Индия
    Продолжительность: 02:04:36
    Перевод: Субтитры

    Файл
    Кодек: Xvid
    Качество: DVDRip
    Видео: Xvid 720x304 23.976fps Video Bit rate:1 214 Kbps
    Звук: Dolby AC3 48000Hz 6ch 448kbps Audio

    Скриншоты

    Залил: RomaPC2013
    Размер: 1.45 GB (1561499648 Bytes)
    Рейтинг →
     (голосов: 1, оценка 3/5, голосовать можно 1 раз )

    Другие торренты по теме:

  • Коммандо / Commando (1985) HDRip от Scarabey | Р
  • Коммандо / Commando (1985) BDRip 720p | P, P2, A скачать через торрент бесплатно
  • Коммандо-леопард / Диверсионный отряд Леопард / Kommando Leopard (1985) BDRip-AVC от MediaClub | A
  • Коммандо / Commando (1985) BDRip 1080p by msltel | P, P2, A скачать через торрент бесплатно
  • Коммандо (Режиссёрская версия) / Commando (Director's cut) / 1985 / ДБ, ПМ / BDRip
  • Коммандо (Режиссёрская версия) / Commando (Director's cut) / 1985 / ДБ, 3 x ПМ, 2 x ПД, 7 x АП, СТ / Blu-Ray Remux (1080p)
  • Коммандо из пригорода / Suburban Commando (1991) WEB-DL 1080p | P, P2, A
  • Коммандо (Режиссёрская версия) / Commando (Director's cut) / 1985 / ДБ, 3 x ПМ, 2 x ПД, 8 x АП, СТ / BDRip (720p)


    • Комментарии (0):

      Информация

      Информация

        Посетители, находящиеся в группе Гости, не могут оставлять комментарии в данной новости.

        ↓ Меню




        ↓ Опрос

        А Вы добавили сайт в закладки?
        Да
        Не


        Top 10 за месяц (Фильмы)