.
Авторизация | Регистрация
Хочешь лучшие торренты? Добавь свой email!
Добавить
  • support: webmaster@servmix.org
» » День последний, день первый (1959) SATRip от New-Team скачать торрент бесплатно


    День последний, день первый (1959) SATRip от New-Team скачать торрент бесплатно

    Опубликовал: Админ | Дата: 29-11-2017, 11:00 | .torrent скачали: 0


    День последний, день первый (1959) SATRip от New-Team
    Мы В КОНТАКТЕ

    Снималось в: СССР
    Создали в: Грузия-фильм
    Категория жанра: драма, мелодрама
    Создали в: 1959
    Время просмотра: 01: 19: 25
    Перевод текста: Не требуется
    Субтитры подготовлены: нет
    Оригинальная аудиодорожка: русский
    Главный режиссер: Сико Долидзе

    Актеры

    Серго Закариадзе, Белла Мирианашвили, Малхаз Горгиладзе, Акакий Васадзе, Динара Жоржолиани, Отар Коберидзе, Ладо Авалиани, Гиули Чохонелидзе, Григорий (Григол) Ткабладзе, Гиви Тохадзе, Медея Чахава, Меги Цулукидзе...
    Об актёрах подробней
    Описание:
    Сегодня старый почтальон Георгий (Серго Закариадзе) в последний раз выходит на работу – завтра он уходит на пенсию. Вместе с ним Ламара - она не поступила в институт, и по путевке райкома комсомола пришла работать на почту. Георгий знакомит девушку с людьми, которым ей предстоит разносить письма и телеграммы.



    Исходник: DVB
    Качество фильма видео: SATRip
    Тип видео видео: AVI
    Информация о видео: 640х480 (4: 3), 25 fps, XviD ~ 1167 kbps avg, 0.152 bit/pixel
    Информация о звуке: 48 kHz, MP3 2.0, 128 kbps
    Раздача от: День последний, день первый (1959) SATRip от New-Team
    MediaInfo

    Общее
    Полное имя : Den.posledniy.den.pervyy.1959.SATRip-745_New-team_by_AVP_Studio.avi
    Формат : AVI
    Формат/Информация : Audio Video Interleave
    Размер файла : 743 Мбайт
    Продолжительность : 1 ч. 19 м.
    Общий поток : 1309 Кбит/сек
    Видео
    Идентификатор : 0
    Формат : MPEG-4 Visual
    Профиль формата : Advanced Simple@L5
    Настройки формата : BVOP1/Custom Matrix
    Параметр BVOP формата : 1
    Параметр QPel формата : Нет
    Параметр GMC формата : Без точки перехода
    Параметр матрицы формата : Выборочная
    Идентификатор кодека : XVID
    Идентификатор кодека/Подсказка : XviD
    Продолжительность : 1 ч. 19 м.
    Битрейт : 1167 Кбит/сек
    Ширина : 640 пикселей
    Высота : 480 пикселей
    Соотношение сторон : 4: 3
    Частота кадров : 25, 000 кадров/сек
    Цветовое пространство : YUV
    Субдискретизация насыщенности : 4: 2: 0
    Битовая глубина : 8 бит
    Тип развёртки : Прогрессивная
    Метод сжатия : С потерями
    Бит/(Пиксели*Кадры) : 0.152
    Размер потока : 663 Мбайт (89%)
    Библиотека кодирования : XviD 73
    Аудио
    Идентификатор : 1
    Формат : MPEG Audio
    Версия формата : Version 1
    Профиль формата : Layer 3
    Идентификатор кодека : 55
    Идентификатор кодека/Подсказка : MP3
    Продолжительность : 1 ч. 19 м.
    Вид битрейта : Постоянный
    Битрейт : 128 Кбит/сек
    Каналы : 2 канала
    Частота : 48, 0 КГц
    Метод сжатия : С потерями
    Размер потока : 72, 7 Мбайт (10%)
    Выравнивание : Соединение по промежуткам
    Продолжительность промежутка : 24 мс. (0, 60 видеокадр)

    Скриншоты



    Залил: AVPStudio

    Онлайн видео День последний, день первый (1959) SATRip от New


    Размер скачиваемого торрента: 743.43 MB (779541740 Bytes)

    День последний, день первый (1959) SATRip от New-Team
    Рейтинг →
     (голосов: 1, оценка 4/5, голосовать можно 1 раз )

    Другие торренты по теме:

  • День первый, день последний / 1978 / РУ / TVRip
  • День последний, день первый (1959) SATRip от New-Team
  • Последний москаль. Судный день / Останній москаль. Судний день (2016) DVB от Files-x
  • Последний москаль. Судный день / Останній москаль. Судний день (2016) WEB-DL 1080p
  • Последний москаль. Судный день / Останній москаль. Судний день (2016) WEB-DLRip-AVC от Files-x
  • Левиафан: Последний День Декады (2013) PC | Demo
  • Последний день / Le dernier jour (2004) DVDRip | P1
  • Последний день будущего / Evilution (2008) WEBRip от Deadmauvlad


    • Комментарии (0):

      Информация

      Информация

        Посетители, находящиеся в группе Гости, не могут оставлять комментарии в данной новости.

        ↓ Меню




        ↓ Опрос

        А Вы добавили сайт в закладки?
        Да
        Не


        Top 10 за месяц (Фильмы)