.
Авторизация | Регистрация
Хочешь лучшие торренты? Добавь свой email!
Добавить
  • support: webmaster@servmix.org
» » День последний, день первый (1959) SATRip от New-Team скачать торрент бесплатно


    День последний, день первый (1959) SATRip от New-Team скачать торрент бесплатно

    Опубликовал: Админ | Дата: 29-11-2017, 11:00 | .torrent скачали: 0


    День последний, день первый (1959) SATRip от New-Team
    Мы В КОНТАКТЕ

    Снималось в: СССР
    Создали в: Грузия-фильм
    Категория жанра: драма, мелодрама
    Создали в: 1959
    Время просмотра: 01: 19: 25
    Перевод текста: Не требуется
    Субтитры подготовлены: нет
    Оригинальная аудиодорожка: русский
    Главный режиссер: Сико Долидзе

    Актеры

    Серго Закариадзе, Белла Мирианашвили, Малхаз Горгиладзе, Акакий Васадзе, Динара Жоржолиани, Отар Коберидзе, Ладо Авалиани, Гиули Чохонелидзе, Григорий (Григол) Ткабладзе, Гиви Тохадзе, Медея Чахава, Меги Цулукидзе...
    Об актёрах подробней
    Описание:
    Сегодня старый почтальон Георгий (Серго Закариадзе) в последний раз выходит на работу – завтра он уходит на пенсию. Вместе с ним Ламара - она не поступила в институт, и по путевке райкома комсомола пришла работать на почту. Георгий знакомит девушку с людьми, которым ей предстоит разносить письма и телеграммы.



    Исходник: DVB
    Качество фильма видео: SATRip
    Тип видео видео: AVI
    Информация о видео: 704х528 (4: 3), 25 fps, XviD ~ 1753 kbps avg, 0.182 bit/pixel
    Информация о звуке: 48 kHz, Dolby Digital AC3 2.0, 192 kbps
    Раздача от: День последний, день первый (1959) SATRip от New-Team
    MediaInfo

    Общее
    Полное имя : Den.posledniy.den.pervyy.1959.SATRip_New-team_by_AVP_Studio.avi
    Формат : AVI
    Формат/Информация : Audio Video Interleave
    Размер файла : 1, 09 Гбайт
    Продолжительность : 1 ч. 19 м.
    Общий поток : 1956 Кбит/сек
    Видео
    Идентификатор : 0
    Формат : MPEG-4 Visual
    Профиль формата : Advanced Simple@L5
    Настройки формата : BVOP1/Custom Matrix
    Параметр BVOP формата : 1
    Параметр QPel формата : Нет
    Параметр GMC формата : Без точки перехода
    Параметр матрицы формата : Выборочная
    Идентификатор кодека : XVID
    Идентификатор кодека/Подсказка : XviD
    Продолжительность : 1 ч. 19 м.
    Битрейт : 1753 Кбит/сек
    Ширина : 704 пикселя
    Высота : 528 пикселей
    Соотношение сторон : 4: 3
    Частота кадров : 25, 000 кадров/сек
    Цветовое пространство : YUV
    Субдискретизация насыщенности : 4: 2: 0
    Битовая глубина : 8 бит
    Тип развёртки : Прогрессивная
    Метод сжатия : С потерями
    Бит/(Пиксели*Кадры) : 0.189
    Размер потока : 996 Мбайт (90%)
    Библиотека кодирования : XviD 73
    Аудио
    Идентификатор : 1
    Формат : AC-3
    Формат/Информация : Audio Coding 3
    Идентификатор кодека : 2000
    Продолжительность : 1 ч. 19 м.
    Вид битрейта : Постоянный
    Битрейт : 192 Кбит/сек
    Каналы : 2 канала
    Расположение каналов : Front: L R
    Частота : 48, 0 КГц
    Частота кадров : 31, 250 кадров/сек (1536 SPF)
    Битовая глубина : 16 бит
    Метод сжатия : С потерями
    Размер потока : 109 Мбайт (10%)
    Выравнивание : Соединение по промежуткам
    Продолжительность промежутка : 32 мс. (0, 80 видеокадр)

    Скриншоты



    Залил: AVPStudio

    Онлайн видео День последний, день первый (1959) SATRip от New


    Размер скачиваемого торрента: 1.09 GB (1165373592 Bytes)

    День последний, день первый (1959) SATRip от New-Team
    Рейтинг →
     (голосов: 1, оценка 4/5, голосовать можно 1 раз )

    Другие торренты по теме:

  • День первый, день последний / 1978 / РУ / TVRip
  • День последний, день первый (1959) SATRip от New-Team
  • Последний москаль. Судный день / Останній москаль. Судний день (2016) DVB от Files-x
  • Последний москаль. Судный день / Останній москаль. Судний день (2016) WEB-DL 1080p
  • Последний москаль. Судный день / Останній москаль. Судний день (2016) WEB-DLRip-AVC от Files-x
  • Левиафан: Последний День Декады (2013) PC | Demo
  • Последний день / Le dernier jour (2004) DVDRip | P1
  • Последний день будущего / Evilution (2008) WEBRip от Deadmauvlad


    • Комментарии (0):

      Информация

      Информация

        Посетители, находящиеся в группе Гости, не могут оставлять комментарии в данной новости.

        ↓ Меню




        ↓ Опрос

        А Вы добавили сайт в закладки?
        Да
        Не


        Top 10 за месяц (Фильмы)