.
Авторизация | Регистрация
Хочешь лучшие торренты? Добавь свой email!
Добавить
  • support: webmaster@servmix.org
» » Диверсант 2: Конец войны DVDRip от Youtracker скачать торрент бесплатно


    Диверсант 2: Конец войны DVDRip от Youtracker скачать торрент бесплатно

    Опубликовал: fregat | Дата: 27-02-2015, 11:09 | .torrent скачали: 813

    По самому краю...

    Диверсант 2: Конец войны DVDRip от Youtracker
    Год выпуска: 2007
    Выпущено: Россия / Про-Синема продакшн

    Жанр: боевик, военный
    Продолжительность: 00:52:04 00:48:40 00:48:01 00:52:30 00:52:29 00:47:36 00:49:37 00:52:40 00:50:03 00:51:32

    Перевод: не требуется
    Оригинальная аудиодорожка: русский
    Субтитры: нет

    Режиссер: Игорь Зайцев

    В ролях: Владислав Галкин, Кирилл Плетнёв, Алексей Бардуков, Владимир Меньшов, Олег Табаков, Михаил Ефремов, Эдвард Жентара, Алексей Гуськов, Игорь Скляр, Вячеслав Разбегаев...

    Описание: Действие картины Диверсант. Конец войны происходит с 1943 по 1947 годы. Главные герои фильма - разведгруппа, выполняющая сверхсекретные задания советского военного командования. В последние годы войны отряд проводит несколько блестящих операций по поиску и ликвидации фашистских разведчиков. Они вместе проходят войну и празднуют победу в Берлине, после чего пути солдат на некоторое время расходятся, и каждый из них пытается устроить свою гражданскую жизнь. Но через некоторое время их собирают вместе и поручают новое секретное задание.





    Качество видео: DVDRip 2 х DVD9 R5
    Формат видео: AVI

    Видео: 720x432 (1.667:1), XviD 2000 Кбит/сек 25,000 fps / Бит/(Пиксели*Кадры): 0.257
    Аудио: Dolby Digital Audio Russian 448 kbps 5.1 / 48 kHz

    Раздача от:
    MediaInfo

    Общее
    Полное имя : Diversant.2.2007.O.DVDRip_Youtracker_by_avproh?6.avi
    Формат : AVI
    Формат/Информация : Audio Video Interleave
    Размер файла : 836 Мбайт
    Продолжительность : 47 м.
    Общий поток : 2457 Кбит/сек
    Программа кодирования : VirtualDubModRus 1.5.10.2 (build 2542/release)
    Библиотека кодирования : VirtualDubMod build 2542/release

    Видео
    Идентификатор : 0
    Формат : MPEG-4 Visual
    Профиль формата : Advanced Simple@L5
    Параметр BVOP формата : 1
    Параметр QPel формата : Нет
    Параметр GMC формата : Без точки перехода
    Параметр матрицы формата : Выборочная
    Идентификатор кодека : XVID
    Идентификатор кодека/Подсказка : XviD
    Продолжительность : 47 м.
    Битрейт : 1999 Кбит/сек
    Ширина : 720 пикселей
    Высота : 432 пикселя
    Соотношение сторон : 1,667
    Частота кадров : 25,000 кадров/сек
    Цветовое пространство : YUV
    Субдискретизация насыщенности : 4:2:0
    Битовая глубина : 8 бит
    Тип развёртки : Прогрессивная
    Метод сжатия : С потерями
    Бит/(Пиксели*Кадры) : 0.257
    Размер потока : 681 Мбайт (81%)
    Библиотека кодирования : XviD 65

    Аудио
    Идентификатор : 1
    Формат : AC-3
    Формат/Информация : Audio Coding 3
    Расширение режима : CM (complete main)
    Параметр Endianness формата : Big
    Идентификатор кодека : 2000
    Продолжительность : 47 м.
    Вид битрейта : Постоянный
    Битрейт : 448 Кбит/сек
    Каналы : 6 каналов
    Расположение каналов : Front: L C R, Side: L R, LFE
    Частота : 48,0 КГц
    Битовая глубина : 16 бит
    Метод сжатия : С потерями
    Размер потока : 152 Мбайт (18%)
    Выравнивание : Разделение по промежуткам
    Продолжительность промежутка : 40 мс. (1,00 видеокадр)
    Время предзагрузки промежутка : 500 мс.

    Скриншоты



    Сравнение

    http://rutor.org/torrent/127586/

    http://screenshotcomparison.com/comparison/22744 - по нему видно, что и качество хуже и перекроп по всем сторонам у конкурента. У конкурента у всех серий обрезана заставка начала, что не принято.

    Залил: avproh
    Размер: 8.67 GB (9313869824 Bytes)
    Рейтинг →
     (голосов: 1, оценка 3/5, голосовать можно 1 раз )

    Другие торренты по теме:

  • Диверсант / Диверсант 2. Конец Войны (2004 - 2007) HDTVRip 720p от GeneralFilm
  • Диверсант / Диверсант 2. Конец Войны (2004 - 2007) HDTVRip от GeneralFilm
  • Диверсант / Диверсант 2. Конец Войны (2004 - 2007) HDTV 1080i от GeneralFilm
  • Диверсант 2: Конец войны DVDRip-AVC от Youtracker
  • Диверсант 1-2 (2004-2007) DVDRip от MediaClub | КПК скачать через торрент бесплатно


    • Комментарии (0):

      Информация

      Информация

        Посетители, находящиеся в группе Гости, не могут оставлять комментарии в данной новости.

        ↓ Меню




        ↓ Опрос

        А Вы добавили сайт в закладки?
        Да
        Не


        Top 10 за месяц (Фильмы)