.
Авторизация | Регистрация
Хочешь лучшие торренты? Добавь свой email!
Добавить
  • support: webmaster@servmix.org
» » Дезорганизованная преступность / Disorganized Crime (1989) BDRip 1080p | P2, A скачать торрент бесплатно


    Дезорганизованная преступность / Disorganized Crime (1989) BDRip 1080p | P2, A скачать торрент бесплатно

    Опубликовал: Админ | Дата: 10-07-2017, 11:00 | .torrent скачали: 0


    Дезорганизованная преступность / Disorganized Crime (1989) BDRip 1080p | P2, A
    Детально о кино
    Русское название: Дезорганизованная преступность
    Русское название в мировом прокате: Disorganized Crime
    Создали в: 1989
    Категория жанра: комедия, криминал
    Главный режиссер: Джим Кауф

    Актеры
    Хойт Экстон, Корбин Бернсен, Рубен Бладес, Фред Гуинн, Эд О’Нил, Лу Дайэмонд Филлипс, Дэниэл Робак, Уильям Расс, Мари Батлер, Грегори Вурстер

    Сюжет фильма

    Идеальных преступлений не бывает. В справедливости этого утверждения на собственной шкуре убедился вор Фрэнк Салазар, задумавший ограбить банк в Монтане.
    Он разработал отличный план налета, подобрал четырех опытнейших подельников, предусмотрел все мелочи и был готов поклясться, что все пройдет как по маслу. К несчастью, его оптимизм угас, когда прямо накануне дела на хвосте героя повисают копы.
    Тем временем, не дождавшись своего заводилы в условленном месте в срок, другие джентльмены удачи начинают заметно нервничать и совершать одну глупейшую ошибку за другой.
    Число анекдотичных промахов незадачливых грабителей растет как снежный ком, на глазах погребая под собой хваленый план Салазара. И вскоре герои обнаруживают, что находятся на грани самого большого профессионального позора в своей преступной жизни…

    Снималось в: США
    Киностудия: Touchstone Pictures
    Время просмотра: 01: 41: 23
    Перевод текста: Профессиональный (двухголосый, закадровый), Авторский (одноголосый, закадровый)
    Файл
    Качество фильма: BDRip 1080p
    Тип видео: Matroska
    Информация о видео: 1920x1040 at 23.976 fps, x264, ~9900 kbps avg
    Информация о звуке#1: 48 kHz, AC3 Dolby Digital, 2/0 (L, R) ch, ~192 kbps avg |Двухголосый закадровый|
    Информация о звуке#2: 48 kHz, AC3 Dolby Digital, 2/0 (L, R) ch, ~192 kbps avg |Авторский, А.Гаврилов|
    Информация о звуке#3: 48 kHz, AC3 Dolby Digital, 2/0 (L, R) ch, ~192 kbps avg |Авторский, В.Дохалов|
    Информация о звуке#4: 48 kHz, AC3 Dolby Digital, 2/0 (L, R) ch, ~192 kbps avg |Авторский, П.Прямостанов|
    Информация о звуке#5: 48 kHz, Digital Theater System, 2/0 (L, R) ch, ~1509 kbps avg
    Субтитры: English
    ***Релиз - whalekilla.
    MediaInfo
    Общее
    Уникальный идентификатор : 246561994040737891871500823922915591937 (0xB97E1CDCFE418752B6C7D917F182C701)
    Полное имя : Disorganized.Crime.1989.BDRip.(1080p).mkv
    Формат : Matroska
    Версия формата : Version 4/Version 2
    Размер файла : 8, 61 Гбайт
    Продолжительность : 1 ч. 41 м.
    Общий поток : 12, 2 Мбит/сек
    Название фильма : Disorganized Crime (1989)
    Дата кодирования : UTC 2017-07-08 15: 29: 17
    Программа кодирования : mkvmerge v6.9.1 (;Blue Panther;) 64bit built on Apr 18 2014 18: 23: 38
    Библиотека кодирования : libebml v1.3.0 + libmatroska v1.4.1
    Видео
    Идентификатор : 1
    Формат : AVC
    Формат/Информация : Advanced Video Codec
    Профиль формата : High@L4.1
    Параметр CABAC формата : Да
    Параметр ReFrames формата : 4 кадра
    Идентификатор кодека : V_MPEG4/ISO/AVC
    Продолжительность : 1 ч. 41 м.
    Битрейт : 9879 Кбит/сек
    Ширина : 1920 пикселей
    Высота : 1040 пикселей
    Соотношение сторон : 1, 85: 1
    Режим частоты кадров : Постоянный
    Частота кадров : 23, 976 кадра/сек
    Цветовое пространство : YUV
    Субдискретизация насыщенности : 4: 2: 0
    Битовая глубина : 8 бит
    Тип развёртки : Прогрессивная
    Бит/(Пиксели*Кадры) : 0.206
    Размер потока : 6, 83 Гбайт (79%)
    Заголовок : Disorganized Crime (1989)
    Библиотека кодирования : x264 core 148 r2744 b97ae06
    Настройки программы : cabac=1/ref=4/deblock=1: -3: -3/analyse=0x3: 0x133/me=umh/subme=11/psy=1/psy_rd=1.00: 0.00/mixed_ref=1/me_range=32/chroma_me=1/trellis=2/8x8dct=1/cqm=0/deadzone=21, 11/fast_pskip=1/chroma_qp_offset=-2/threads=6/lookahead_threads=1/sliced_threads=0/nr=0/decimate=1/interlaced=0/bluray_compat=0/constrained_intra=0/bframes=5/b_pyramid=2/b_adapt=2/b_bias=0/direct=3/weightb=1/open_gop=0/weightp=2/keyint=240/keyint_min=23/scenecut=40/intra_refresh=0/rc_lookahead=60/rc=2pass/mbtree=1/bitrate=9879/ratetol=1.0/qcomp=0.60/qpmin=0/qpmax=69/qpstep=4/cplxblur=20.0/qblur=0.5/vbv_maxrate=50000/vbv_bufsize=62500/nal_hrd=none/filler=0/ip_ratio=1.40/aq=1: 1.00
    Язык : English
    Default : Да
    Forced : Нет
    Аудио #1
    Идентификатор : 2
    Формат : AC-3
    Формат/Информация : Audio Coding 3
    Расширение режима : CM (complete main)
    Параметр Endianness формата : Big
    Идентификатор кодека : A_AC3
    Продолжительность : 1 ч. 41 м.
    Вид битрейта : Постоянный
    Битрейт : 192 Кбит/сек
    Каналы : 2 канала
    Расположение каналов : Front: L R
    Частота : 48, 0 КГц
    Битовая глубина : 16 бит
    Метод сжатия : С потерями
    Размер потока : 139 Мбайт (2%)
    Заголовок : AC3, 2 ch, 192 Kbps, DVO
    Язык : Russian
    Default : Да
    Forced : Нет
    Аудио #2
    Идентификатор : 3
    Формат : AC-3
    Формат/Информация : Audio Coding 3
    Расширение режима : CM (complete main)
    Параметр Endianness формата : Big
    Идентификатор кодека : A_AC3
    Продолжительность : 1 ч. 41 м.
    Вид битрейта : Постоянный
    Битрейт : 192 Кбит/сек
    Каналы : 2 канала
    Расположение каналов : Front: L R
    Частота : 48, 0 КГц
    Битовая глубина : 16 бит
    Метод сжатия : С потерями
    Размер потока : 139 Мбайт (2%)
    Заголовок : AC3, 2 ch, 192 Kbps, AVO, Гаврилов
    Язык : Russian
    Default : Нет
    Forced : Нет
    Аудио #3
    Идентификатор : 4
    Формат : AC-3
    Формат/Информация : Audio Coding 3
    Расширение режима : CM (complete main)
    Параметр Endianness формата : Big
    Идентификатор кодека : A_AC3
    Продолжительность : 1 ч. 41 м.
    Вид битрейта : Постоянный
    Битрейт : 192 Кбит/сек
    Каналы : 2 канала
    Расположение каналов : Front: L R
    Частота : 48, 0 КГц
    Битовая глубина : 16 бит
    Метод сжатия : С потерями
    Размер потока : 139 Мбайт (2%)
    Заголовок : AC3, 2 ch, 192 Kbps, AVO, Дохалов
    Язык : Russian
    Default : Нет
    Forced : Нет
    Аудио #4
    Идентификатор : 5
    Формат : AC-3
    Формат/Информация : Audio Coding 3
    Расширение режима : CM (complete main)
    Параметр Endianness формата : Big
    Идентификатор кодека : A_AC3
    Продолжительность : 1 ч. 41 м.
    Вид битрейта : Постоянный
    Битрейт : 192 Кбит/сек
    Каналы : 2 канала
    Расположение каналов : Front: L R
    Частота : 48, 0 КГц
    Битовая глубина : 16 бит
    Метод сжатия : С потерями
    Размер потока : 139 Мбайт (2%)
    Заголовок : AC3, 2 ch, 192 Kbps, AVO, Прямостанов
    Язык : Russian
    Default : Нет
    Forced : Нет
    Аудио #5
    Идентификатор : 6
    Формат : DTS
    Формат/Информация : Digital Theater Systems
    Режим : 16
    Параметр Endianness формата : Big
    Идентификатор кодека : A_DTS
    Продолжительность : 1 ч. 41 м.
    Вид битрейта : Постоянный
    Битрейт : 1509 Кбит/сек
    Каналы : 2 канала
    Расположение каналов : Front: L R
    Частота : 48, 0 КГц
    Битовая глубина : 24 бит
    Метод сжатия : С потерями
    Размер потока : 1, 07 Гбайт (12%)
    Заголовок : DTS, 2 ch, 1509 Kbps, Original
    Язык : English
    Default : Нет
    Forced : Нет
    Текст
    Идентификатор : 7
    Формат : UTF-8
    Идентификатор кодека : S_TEXT/UTF8
    Идентификатор кодека/Информация : UTF-8 Plain Text
    Язык : English
    Default : Нет
    Forced : Нет
    Скриншоты



    Онлайн видео Дезорганизованная преступность


    Размер скачиваемого торрента: 8.61 GB (9244691562 Bytes)

    Дезорганизованная преступность/Disorganized Crime (1989) BDRip 1080p | P2, A
    Рейтинг →
     (голосов: 1, оценка 4/5, голосовать можно 1 раз )

    Другие торренты по теме:

  • Дезорганизованная преступность / Disorganized Crime (1989) BDRip-AVC от MediaClub
  • Дезорганизованная преступность / Disorganized Crime (1989) BDRip 720p от MediaClub
  • Дезорганизованная преступность / Disorganized Crime (1989) BDRip-AVC от MediaClub


    • Комментарии (0):

      Информация

      Информация

        Посетители, находящиеся в группе Гости, не могут оставлять комментарии в данной новости.

        ↓ Меню




        ↓ Опрос

        А Вы добавили сайт в закладки?
        Да
        Не


        Top 10 за месяц (Фильмы)