.
Авторизация | Регистрация
Хочешь лучшие торренты? Добавь свой email!
Добавить
  • support: webmaster@servmix.org
» » Луговая страна / Meadowland (2015) WEB-DL 1080р | iTunes | ATV скачать торрент бесплатно


    Луговая страна / Meadowland (2015) WEB-DL 1080р | iTunes | ATV скачать торрент бесплатно

    Опубликовал: fregat | Дата: 2-06-2017, 11:00 | .torrent скачали: 0


    Луговая страна / Meadowland (2015) WEB-DL 1080р | iTunes | ATV
    Луговая страна / Meadowland
    Снималось в: США
    Создали в: Bron Studios, Itaca Films
    Создали в: 2015
    Категория жанра: драма
    Время просмотра: 01: 35: 03
    Главный режиссер: Рид Морано
    Автор сценария: Кристофер Росси

    Актеры
    Оливия Уайлд, Люк Уилсон, Джованни Рибизи, Элизабет Мосс, Тай Симпкинс, Джон Легуизамо, Кевин Корригэн, Мерритт Уивер
    Описание: Супруги Сара и Фил сталкиваются с бедой: бесследно исчезает их сын. Фил, полицейский из Нью-Йорка, пытается заглушить горе привычными методами с обычными в таких случаях последствиями, а Сара справляется с этим другим способом: она начинает сама искать на свою голову не просто неприятности, а самые настоящие опасности...

    Перевод текста: Профессиональный (многоголосый, закадровый) | iTunes
    Субтитры: русские, английские
    Качество фильма: WEB-DL 1080р
    Тип видео: M4V
    Информация о видео кодек: AVC
    Информация о звуке кодек: AAC | АС3
    Информация о видео №1: 1920x798 (2.40: 1), 23.976 fps, MPEG-4 AVC ~4 617 kbps avg
    Информация о видео №2: 640x266 (2.40: 1), 0.003 fps, MPEG-4 AVC ~743 bps avg
    Информация о звуке №1: 48.0 kHz, Advanced Audio Codec LC, 2/0 (L, R) ch, ~157 kbps | RUS
    Информация о звуке №2: 48.0 kHz, Advanced Audio Codec LC, 2/0 (L, R) ch, ~157 kbps | ENG
    Информация о звуке №3: 48.0 kHz, AC3 Dolby Digital, 3/2 (L, C, R, l, r) + LFE ch, ~384 kbps | RUS
    Информация о звуке №4: 48.0 kHz, AC3 Dolby Digital, 3/2 (L, C, R, l, r) + LFE ch, ~384 kbps | ENG
    Тип видео субтитров: Timed text
    Дата премьеры (мир): 17 апреля 2015

    Media Info
    General
    Complete name : Meadowland.WEB-DL.1080p.m4v
    Format : MPEG-4
    Codec ID : M4V
    File size : 3.79 GiB
    Duration : 1h 35mn
    Overall bit rate mode : Variable
    Overall bit rate : 5 709 Kbps
    Recorded date : UTC 2015-04-17 08: 00: 00
    Encoded date : UTC 2016-09-28 09: 48: 06
    Tagged date : UTC 2016-09-28 09: 56: 39
    Copyright : © 2015 Meadowland Movie, LLC
    Cover : Yes
    AppleStoreCatalogID : 1034087503
    Vendor : Apple: vendor_id: 2015-837104
    ContentRating : mpaa|R|400|
    Video #1
    ID : 1
    Format : AVC
    Format/Info : Advanced Video Codec
    Format profile : High@L4
    Format settings, CABAC : Yes
    Format settings, ReFrames : 5 frames
    Codec ID : avc1
    Codec ID/Info : Advanced Video Coding
    Duration : 1h 35mn
    Bit rate : 4 617 Kbps
    Width : 1 920 pixels
    Height : 798 pixels
    Display aspect ratio : 2.40: 1
    Frame rate mode : Variable
    Frame rate : 23.976 fps
    Minimum frame rate : 23.810 fps
    Maximum frame rate : 24.390 fps
    Color space : YUV
    Chroma subsampling : 4: 2: 0
    Bit depth : 8 bits
    Scan type : Progressive
    Bits/(Pixel*Frame) : 0.126
    Stream size : 3.07 GiB (81%)
    Title : Main Program
    Language : English
    Encoded date : UTC 2016-09-28 09: 48: 06
    Tagged date : UTC 2016-09-28 09: 48: 13
    Color range : Limited
    Color primaries : BT.709
    Transfer characteristics : BT.709
    Matrix coefficients : BT.709
    Video #2
    ID : 9
    Format : JPEG
    Codec ID : jpeg
    Duration : 1h 35mn
    Bit rate mode : Variable
    Bit rate : 743 bps
    Width : 640 pixels
    Height : 266 pixels
    Display aspect ratio : 2.40: 1
    Frame rate mode : Variable
    Frame rate : 0.003 fps
    Minimum frame rate : 0.001 fps
    Maximum frame rate : 0.006 fps
    Color space : YUV
    Chroma subsampling : 4: 2: 0
    Bit depth : 8 bits
    Compression mode : Lossy
    Bits/(Pixel*Frame) : 1.455
    Stream size : 484 KiB (0%)
    Title : Chapter Images
    Language : English
    Encoded date : UTC 2016-09-28 09: 48: 21
    Tagged date : UTC 2016-09-28 09: 48: 21
    Audio #1
    ID : 2
    Format : AAC
    Format/Info : Advanced Audio Codec
    Format profile : LC
    Codec ID : 40
    Duration : 1h 35mn
    Bit rate mode : Variable
    Bit rate : 157 Kbps
    Maximum bit rate : 250 Kbps
    Channel(s) : 2 channels
    Channel positions : Front: L R
    Sampling rate : 48.0 KHz
    Compression mode : Lossy
    Stream size : 107 MiB (3%)
    Title : Russian Stereo
    Language : Russian
    Encoded date : UTC 2016-09-28 09: 48: 06
    Tagged date : UTC 2016-09-28 09: 48: 14
    Audio #2
    ID : 3
    Format : AAC
    Format/Info : Advanced Audio Codec
    Format profile : LC
    Codec ID : 40
    Duration : 1h 35mn
    Bit rate mode : Variable
    Bit rate : 157 Kbps
    Maximum bit rate : 252 Kbps
    Channel(s) : 2 channels
    Channel positions : Front: L R
    Sampling rate : 48.0 KHz
    Compression mode : Lossy
    Stream size : 107 MiB (3%)
    Title : English Stereo
    Language : English
    Encoded date : UTC 2016-09-28 09: 48: 06
    Tagged date : UTC 2016-09-28 09: 48: 14
    Audio #3
    ID : 4
    Format : AC-3
    Format/Info : Audio Coding 3
    Mode extension : CM (complete main)
    Format settings, Endianness : Big
    Codec ID : ac-3
    Duration : 1h 35mn
    Bit rate mode : Constant
    Bit rate : 384 Kbps
    Channel(s) : 6 channels
    Channel positions : Front: L C R, Side: L R, LFE
    Sampling rate : 48.0 KHz
    Bit depth : 16 bits
    Compression mode : Lossy
    Stream size : 261 MiB (7%)
    Title : Russian DD 5.1
    Language : Russian
    Encoded date : UTC 2016-09-28 09: 48: 06
    Tagged date : UTC 2016-09-28 09: 48: 13
    Audio #4
    ID : 5
    Format : AC-3
    Format/Info : Audio Coding 3
    Mode extension : CM (complete main)
    Format settings, Endianness : Big
    Codec ID : ac-3
    Duration : 1h 35mn
    Bit rate mode : Constant
    Bit rate : 384 Kbps
    Channel(s) : 6 channels
    Channel positions : Front: L C R, Side: L R, LFE
    Sampling rate : 48.0 KHz
    Bit depth : 16 bits
    Compression mode : Lossy
    Stream size : 261 MiB (7%)
    Title : English DD 5.1
    Language : English
    Encoded date : UTC 2016-09-28 09: 48: 06
    Tagged date : UTC 2016-09-28 09: 48: 13
    Text #1
    ID : 6
    Format : Timed Text
    Muxing mode : sbtl
    Codec ID : tx3g
    Duration : 1h 34mn
    Bit rate mode : Variable
    Bit rate : 49 bps
    Stream size : 33.9 KiB (0%)
    Title : Russian full
    Language : Russian
    Encoded date : UTC 2016-09-28 09: 48: 06
    Tagged date : UTC 2016-09-28 09: 48: 13
    Text #2
    ID : 7
    Format : Timed Text
    Muxing mode : sbtl
    Codec ID : tx3g
    Duration : 1h 26mn
    Bit rate mode : Variable
    Bit rate : 39 bps
    Stream size : 24.6 KiB (0%)
    Title : English full
    Language : English
    Encoded date : UTC 2016-09-28 09: 48: 06
    Tagged date : UTC 2016-09-28 09: 48: 13
    Menu #1
    00: 00: 00.000 : 1
    00: 04: 23.888 : 2
    00: 13: 15.336 : 3
    00: 20: 13.420 : 4
    00: 25: 47.462 : 5
    00: 30: 54.936 : 6
    00: 37: 53.604 : 7
    00: 41: 03.752 : 8
    00: 45: 37.025 : 9
    00: 48: 30.239 : 10
    00: 53: 10.852 : 11
    00: 57: 56.761 : 12
    01: 07: 33.922 : 13
    01: 12: 23.127 : 14
    01: 18: 07.971 : 15
    01: 23: 44.015 : 16
    Menu #2
    ID : 8
    Codec ID : text
    Duration : 1h 35mn
    Language : English
    Encoded date : UTC 2016-09-28 09: 48: 15
    Tagged date : UTC 2016-09-28 09: 48: 15
    00: 00: 00.000 : 1
    00: 04: 23.888 : 2
    00: 13: 15.336 : 3
    00: 20: 13.420 : 4
    00: 25: 47.462 : 5
    00: 30: 54.936 : 6
    00: 37: 53.604 : 7
    00: 41: 03.752 : 8
    00: 45: 37.025 : 9
    00: 48: 30.239 : 10
    00: 53: 10.852 : 11
    00: 57: 56.761 : 12
    01: 07: 33.922 : 13
    01: 12: 23.127 : 14
    01: 18: 07.971 : 15
    01: 23: 44.015 : 16
    Bit rate mode : VBR
    Скриншоты

    Дополнительная информация: релиз подготовлен для просмотра на Apple TV, iPad, iPhone, iPod Touch.
    Для просмотра данного релиза на компьютере с ОС Windows рекомендуется использовать VLC media player
    Залил: Zha-4k-e

    Онлайн видео Луговая страна


    Размер скачиваемого торрента: 3.79 GB (4072054583 Bytes)

    Луговая страна/Meadowland (2015) WEB-DL 1080р | iTunes | ATV
    Рейтинг →
     (голосов: 1, оценка 3/5, голосовать можно 1 раз )

    Другие торренты по теме:

  • Луговая страна / Meadowland (2015) WEB-DLRip | L
  • Луговая страна / Meadowland (2015) WEB-DL 1080p | iTunes
  • Луговая страна / Meadowland (2015) WEB-DLRip от MegaPeer | iTunes
  • Луговая страна / Meadowland (2015) WEB-DL 720p | iTunes
  • Луговая страна / Meadowland (2015) WEB-DLRip-AVC | iTunes
  • Луговая страна / Meadowland (2015) WEB-DLRip от Scarabey | iTunes


    • Комментарии (0):

      Информация

      Информация

        Посетители, находящиеся в группе Гости, не могут оставлять комментарии в данной новости.

        ↓ Меню




        ↓ Опрос

        А Вы добавили сайт в закладки?
        Да
        Не


        Top 10 за месяц (Фильмы)