.
Авторизация | Регистрация
Хочешь лучшие торренты? Добавь свой email!
Добавить
  • support: webmaster@servmix.org
» » Чeловек, который слишком много знал / The Man Who Knew Too Much (1956) DVB | Fullscreen | P скачать торрент бесплатно


    Чeловек, который слишком много знал / The Man Who Knew Too Much (1956) DVB | Fullscreen | P скачать торрент бесплатно

    Опубликовал: fregat | Дата: 19-04-2017, 11:02 | .torrent скачали: 0


    Чeловек, который слишком много знал / The Man Who Knew Too Much (1956) DVB | Fullscreen | P
    Русское название: Человек, который слишком много знал
    Русское название в мировом прокате: The Man Who Knew Too Much
    Создали в: 1956
    Категория жанра: триллер, драма
    Главный режиссер: Альфред Хичкок

    Актеры
    Джеймс Стюарт, Дорис Дэй, Бренда Де Банзи, Бернард Майлз, Ральф Труман, Даниэль Желен, Могенс Вит, Алан Маубрэй, Хиллари Брук

    Сюжет фильма

    Доктор Бен и Джо МакКенна, простые, ничего не подозревающие туристы, едут провести отпуск в Марокко. Вместе с ними их сын Хэнк, они наслаждаются отпуском, когда встречают мистера и миссис Дрэйтон, супружескую пару из Англии, и подозрительного, но дружелюбного француза Луи Бернара.
    Позже, когда Бен и Джо ходят по базару, к ним подбегает араб с ножом в спине. Бен буквально подхватывает падающего араба и, к своему ужасу, узнает, что это переодетый Луи Бернар. Француз успевает прошептать что-то Бену, и тот оказывается втянутым в самый центр международного заговора, участники которого ставят своей целью покушение на высокопоставленную особу, остановить ход событий может только Бен. Хичкок сам появляется в фильме в эпизодической роли, как и его композитор, Бернард Херрманн.
    Доп. информация: По наполнению кадра отличается от BD. Сравнение

    Снималось в: США
    Время просмотра: 01: 54: 40
    Перевод текста: Профессиональный многоголосый закадровый (Первый канал)
    Файл
    Кодек для видео: AVC
    Качество фильма: DVB
    Информация о видео: 2689 Кбит/с, 720x576, 25 fps
    Информация о звуке: MP2, 48 KHz, 192 Kbps, 2 channels
    Семпл
    MediaInfo

    General
    ID : 1 (0x1)
    Complete name : D: Человек, который слишком много знал.ts
    Format : MPEG-TS
    File size : 2.43 GiB
    Duration : 1h 54mn
    Overall bit rate mode : Variable
    Overall bit rate : 3 033 Kbps
    Video
    ID : 1068 (0x42C)
    Menu ID : 1060 (0x424)
    Format : AVC
    Format/Info : Advanced Video Codec
    Format profile : Main@L3.0
    Format settings, CABAC : Yes
    Format settings, ReFrames : 3 frames
    Format settings, GOP : M=4, N=28
    Codec ID : 27
    Duration : 1h 54mn
    Bit rate : 2 689 Kbps
    Width : 720 pixels
    Height : 576 pixels
    Display aspect ratio : 4: 3
    Frame rate : 25.000 fps
    Standard : Component
    Color space : YUV
    Chroma subsampling : 4: 2: 0
    Bit depth : 8 bits
    Scan type : Interlaced
    Scan order : Top Field First
    Bits/(Pixel*Frame) : 0.259
    Stream size : 2.15 GiB (89%)
    Color primaries : BT.601 PAL
    Transfer characteristics : BT.470 System B, BT.470 System G
    Matrix coefficients : BT.601
    Audio
    ID : 1069 (0x42D)
    Menu ID : 1060 (0x424)
    Format : MPEG Audio
    Format version : Version 1
    Format profile : Layer 2
    Codec ID : 3
    Duration : 1h 54mn
    Bit rate mode : Constant
    Bit rate : 192 Kbps
    Channel(s) : 2 channels
    Sampling rate : 48.0 KHz
    Compression mode : Lossy
    Delay relative to video : -40ms
    Stream size : 157 MiB (6%)
    Language : English
    Text
    ID : 1070 (0x42E)-800
    Menu ID : 1060 (0x424)
    Format : reserved for future use
    Language : Russian
    Menu
    ID : 32 (0x20)
    Menu ID : 1060 (0x424)
    Duration : 1h 54mn
    List : 1068 (0x42C) (AVC)/1069 (0x42D) (MPEG Audio, English)/1070 (0x42E) ()
    Language : /English
    Скриншоты


    Онлайн видео Чeловек, который слишком много знал


    Размер скачиваемого торрента: 2.43 GB (2608746092 Bytes)

    Чeловек, который слишком много знал/The Man Who Knew Too Much (1956) DVB | Fullscreen | P
    Рейтинг →
     (голосов: 1, оценка 5/5, голосовать можно 1 раз )

    Другие торренты по теме:

  • Чeловек, который хотел быть королём / The Man Who Would Be King (1975) BDRip 1080p | Р, А


    • Комментарии (0):

      Информация

      Информация

        Посетители, находящиеся в группе Гости, не могут оставлять комментарии в данной новости.

        ↓ Меню




        ↓ Опрос

        А Вы добавили сайт в закладки?
        Да
        Не


        Top 10 за месяц (Фильмы)