.
Авторизация | Регистрация
Хочешь лучшие торренты? Добавь свой email!
Добавить
  • support: webmaster@servmix.org
» » Газонокосильщик / The Lawnmower Man (1992) HDRip от Portablius | P | Театральная версия скачать торрент бесплатно


    Газонокосильщик / The Lawnmower Man (1992) HDRip от Portablius | P | Театральная версия скачать торрент бесплатно

    Опубликовал: Админ | Дата: 5-01-2017, 09:00 | .torrent скачали: 14


    Газонокосильщик / The Lawnmower Man (1992) HDRip от Portablius | P | Театральная версия
    Детально о кино
    Русское название: Газонокосильщик
    Русское название в мировом прокате: The Lawnmower Man
    Создали в: 1992
    Категория жанра: Ужасы, фантастика
    Главный режиссер: Бретт Леонард

    Актеры
    Джефф Фэйи/Jeff Fahey, Пирс Броснан/Pierce Brosnan, Дженни Райт/Jenny Wright, Марк Бринглсон/Mark Bringleson, Джеффри Льюис/Geoffrey Lewis, Джереми Слейт/Jeremy Slate, Дин Норрис/Dean Norris, Коллин Коффи/Colleen Coffey, Джим Лэндис/Jim Landis, Трой Эванс/Troy Evans, Розали Майокс/Rosalee Mayeux

    Сюжет фильма
    Молодой талантливый ученый Трэйс ставит над умственно неполноценным косильщиком лужаек Джоубом эксперименты с использованием высоких компьютерных технологий в комбинации с наркотиками. Трэйс внедряет Джоуба в виртуальную реальность — трехмерный компьютерный мир. Ученому удается развить умственные способности вчерашнего недоумка до супергения. Но в ход эксперимента тайно вмешиваются военные, и испытуемый превращается в сверхинтеллектуального монстра-психопата в человеческом облике, у которого возникают претензии на мировое господство.

    Снималось в: Великобритания, США, Япония
    Киностудия: Allied Vision, Fuji Eight Company Ltd, Lane Pringle Productions
    Время просмотра: 01: 43: 53
    Перевод текста: Профессиональный (многоголосый, закадровый) | Инис
    Субтитры: Нет
    Семпл
    Файл
    Кодек для видео: XviD
    Качество фильма: HDRip
    Информация о видео: 592x320 (1.85: 1), 25 fps, XviD build 73 ~871 kbps avg, 0.18 bit/pixel
    Информация о звуке: 48 kHz, MPEG Layer 3, 2 ch, ~128.00 kbps avg
    MediaInfo
    Общее
    Полное имя : The.Lawnmower.Man.1992.Teatrical.Cut.HDRip.ot.Portablius.avi
    Формат : AVI
    Формат/Информация : Audio Video Interleave
    Размер файла : 750 Мбайт
    Продолжительность : 1 ч. 43 м.
    Общий поток : 1010 Кбит/сек
    Программа кодирования : VirtualDubMod 1.5.10.3 | www.virtualdub-fr.org || (build 2550/release)
    Библиотека кодирования : VirtualDubMod build 2550/release
    Видео
    Идентификатор : 0
    Формат : MPEG-4 Visual
    Профиль формата : Advanced Simple@L5
    Параметр BVOP формата : 1
    Параметр QPel формата : Нет
    Параметр GMC формата : Без точки перехода
    Параметр матрицы формата : Выборочная
    Идентификатор кодека : XVID
    Идентификатор кодека/Подсказка : XviD
    Продолжительность : 1 ч. 43 м.
    Битрейт : 872 Кбит/сек
    Ширина : 592 пикселя
    Высота : 320 пикселей
    Соотношение сторон : 1, 85: 1
    Частота кадров : 25, 000 кадров/сек
    Цветовое пространство : YUV
    Субдискретизация насыщенности : 4: 2: 0
    Битовая глубина : 8 бит
    Тип развёртки : Прогрессивная
    Метод сжатия : С потерями
    Бит/(Пиксели*Кадры) : 0.184
    Размер потока : 648 Мбайт (86%)
    Библиотека кодирования : XviD 73
    Аудио
    Идентификатор : 1
    Формат : MPEG Audio
    Версия формата : Version 1
    Профиль формата : Layer 3
    Идентификатор кодека : 55
    Идентификатор кодека/Подсказка : MP3
    Продолжительность : 1 ч. 43 м.
    Вид битрейта : Постоянный
    Битрейт : 128 Кбит/сек
    Каналы : 2 канала
    Частота : 48, 0 КГц
    Метод сжатия : С потерями
    Размер потока : 95, 1 Мбайт (13%)
    Выравнивание : Соединение по промежуткам
    Продолжительность промежутка : 40 мс. (1, 00 видеокадр)
    Время предзагрузки промежутка : 504 мс.
    Библиотека кодирования : LAME3.99r
    Залил: Evgen Portable

    Онлайн видео Газонокосильщик


    Размер скачиваемого торрента: 750.06 MB (786491392 Bytes)


    Газонокосильщик/The Lawnmower Man (1992) HDRip от Portablius | P | Театральная версия
    Рейтинг →
     (голосов: 1, оценка 3/5, голосовать можно 1 раз )

    Другие торренты по теме:

  • Газонокосильщик / The Lawnmower Man (1992) BDRip 1080p | Р, А | Театральная версия
  • Газонокосильщик / The Lawnmower Man (1992) HDRip от Scarabey | P | Театральная версия
  • Газонокосильщик 2: За пределами киберпространства / Lawnmower Man 2: Beyond Cyberspace (1996) WEB-DL 720p | Р, Р2, А
  • Газонокосильщик / The Lawnmower Man (1992) BDRip 1080p | P | Режиссерская версия
  • Газонокосильщик / The Lawnmower Man (1992) BDRip | P | Режиссерская версия
  • Газонокосильщик / The Lawnmower Man (1992) BDRip 720p от k.e.n MegaPeer | P | Directors Cut
  • Газонокосильщик / The Lawnmower Man (1992) BDRip-AVC | P | Режиссерская версия
  • Газонокосильщик / The Lawnmower Man (1992) DVD9 | P | Режиссерская версия


    • Комментарии (0):

      Информация

      Информация

        Посетители, находящиеся в группе Гости, не могут оставлять комментарии в данной новости.

        ↓ Меню




        ↓ Опрос

        А Вы добавили сайт в закладки?
        Да
        Не


        Top 10 за месяц (Фильмы)