.
Авторизация | Регистрация
Хочешь лучшие торренты? Добавь свой email!
Добавить
  • support: webmaster@servmix.org
» » Турбулентность / Turbulence (1997) WEB-DL 720p от Переулка Переводмана | P, A скачать торрент бесплатно


    Турбулентность / Turbulence (1997) WEB-DL 720p от Переулка Переводмана | P, A скачать торрент бесплатно

    Опубликовал: fregat | Дата: 15-12-2016, 09:00 | .torrent скачали: 9


    Турбулентность / Turbulence (1997) WEB-DL 720p от Переулка Переводмана | P, A
    Русское название: Турбулентность
    Русское название в мировом прокате: Turbulence
    Создали в: 1997
    Снималось в: США
    Киностудия: Metro-Goldwyn-Mayer (MGM), Rysher Entertainment
    Время просмотра: 01: 40: 59
    Категория жанра: боевик, триллер
    Главный режиссер: Роберт Батлер

    Актеры
    Рэй Лиотта, Лорен Холли, Брендан Глисон, Гектор Элизондо, Рейчел Тикотин, Джеффри ДеМунн, Джон Финн, Бен Кросс, Кэтрин Хикс, Хайди Клинг, ...
    Перевод текста:
    - Авторский (одноголосый, закадровый) Есарев Дмитрий
    - Профессиональный (многоголосный, закадровый) СТС
    - Авторский (одноголосый, закадровый) Гаврилов Андрей Юрьевич
    - Субтитры

    Сюжет фильма
    Насильник и убийца Райан Уивер попадает в руки полиции. Его вместе с другим бандитом по имени Стаббс решают переправить в лос-анджелесскую тюрьму. Неожиданно во время полета Стаббс делает попытку захватить самолет.
    Почувствовав свой шанс, Райан перехватывает инициативу. Ситуация выходит из-под контроля. Дальнейшее развитие событий на борту вынуждает наземные службы поставить вопрос об уничтожении самолета…

    Кодек для видео: MPEG4/ISO/AVC
    Качество фильма: WEB-DL 720p
    Информация о видео: 1280x534, 4021 kbps, 23, 976 fps
    Информация о звуке #1: AC-3, 2 ch, 224 kbps (Rus) - AVO Есарев Дмитрий
    Информация о звуке #2: AC-3, 2 ch, 192 kbps (Rus) - MVO СТС
    Информация о звуке #3: AC-3, 2 ch, 192 kbps (Rus) - AVO Гаврилов Андрей Юрьевич
    Информация о звуке #4: AC-3, 2 ch, 224 kbps (Eng)
    Субтитры: Русские, Английские
    Дополнительная информация
    Перевод и озвучка Дмитрия Есаревастали доступны благодаря Переулку Переводманаи Pr0peLLer, Kruj0k, mihaildns, mv73, 7654, Star Dog, iVov4ik.
    Сведение с голосом и постер - Перевод текстаман

    MediaInfo
    Общее
    Уникальный идентификатор : 211662464929888738017632168163736973326 (0x9F3CB53AF9751AAFAC55F3DEBCBE700E)
    Полное имя : Турбулентность (Turbulence) 1997 WEB-DL 720p.mkv
    Формат : Matroska
    Версия формата : Version 2
    Размер файла : 3, 49 Гбайт
    Продолжительность : 1 ч. 40 м.
    Общий поток : 4951 Кбит/сек
    Дата кодирования : UTC 2016-12-12 11: 18: 41
    Программа кодирования : mkvmerge v4.0.0 (;The Stars were mine;) сборка от Jun 6 2010 16: 18: 42
    Библиотека кодирования : libebml v1.0.0 + libmatroska v1.0.0
    Видео
    Идентификатор : 1
    Формат : AVC
    Формат/Информация : Advanced Video Codec
    Профиль формата : Main@L3.1
    Параметр CABAC формата : Нет
    Параметр ReFrames формата : 2 кадра
    Идентификатор кодека : V_MPEG4/ISO/AVC
    Продолжительность : 1 ч. 40 м.
    Битрейт : 4021 Кбит/сек
    Ширина : 1280 пикселей
    Высота : 534 пикселя
    Соотношение сторон : 2, 40: 1
    Режим частоты кадров : Постоянный
    Частота кадров : 23, 976 кадра/сек
    Цветовое пространство : YUV
    Субдискретизация насыщенности : 4: 2: 0
    Битовая глубина : 8 бит
    Тип развёртки : Прогрессивная
    Бит/(Пиксели*Кадры) : 0.245
    Размер потока : 2, 84 Гбайт (81%)
    Язык : English
    Default : Нет
    Forced : Нет
    Цветовой диапазон : Limited
    Основные цвета : BT.709
    Характеристики трансфера : BT.709
    Коэффициенты матрицы : BT.709
    Аудио #1
    Идентификатор : 2
    Формат : AC-3
    Формат/Информация : Audio Coding 3
    Расширение режима : CM (complete main)
    Параметр Endianness формата : Big
    Идентификатор кодека : A_AC3
    Продолжительность : 1 ч. 40 м.
    Вид битрейта : Постоянный
    Битрейт : 224 Кбит/сек
    Каналы : 2 канала
    Расположение каналов : Front: L R
    Частота : 48, 0 КГц
    Частота кадров : 31, 250 кадров/сек (1536 spf)
    Метод сжатия : С потерями
    Размер потока : 162 Мбайт (5%)
    Заголовок : AVO Есарев Дмитрий
    Язык : Russian
    Default : Нет
    Forced : Нет
    Аудио #2
    Идентификатор : 3
    Формат : AC-3
    Формат/Информация : Audio Coding 3
    Расширение режима : CM (complete main)
    Параметр Endianness формата : Big
    Идентификатор кодека : A_AC3
    Продолжительность : 1 ч. 40 м.
    Вид битрейта : Постоянный
    Битрейт : 192 Кбит/сек
    Каналы : 2 канала
    Расположение каналов : Front: L R
    Частота : 48, 0 КГц
    Частота кадров : 31, 250 кадров/сек (1536 spf)
    Метод сжатия : С потерями
    Размер потока : 139 Мбайт (4%)
    Заголовок : MVO СТС
    Язык : Russian
    Default : Нет
    Forced : Нет
    Аудио #3
    Идентификатор : 4
    Формат : AC-3
    Формат/Информация : Audio Coding 3
    Расширение режима : CM (complete main)
    Параметр Endianness формата : Big
    Идентификатор кодека : A_AC3
    Продолжительность : 1 ч. 40 м.
    Вид битрейта : Постоянный
    Битрейт : 192 Кбит/сек
    Каналы : 2 канала
    Расположение каналов : Front: L R
    Частота : 48, 0 КГц
    Частота кадров : 31, 250 кадров/сек (1536 spf)
    Метод сжатия : С потерями
    Размер потока : 139 Мбайт (4%)
    Заголовок : AVO Гаврилов Андрей Юрьевич
    Язык : Russian
    Default : Нет
    Forced : Нет
    Аудио #4
    Идентификатор : 5
    Формат : AC-3
    Формат/Информация : Audio Coding 3
    Расширение режима : CM (complete main)
    Параметр Endianness формата : Big
    Идентификатор кодека : A_AC3
    Продолжительность : 1 ч. 40 м.
    Вид битрейта : Постоянный
    Битрейт : 224 Кбит/сек
    Каналы : 2 канала
    Расположение каналов : Front: L R
    Частота : 48, 0 КГц
    Частота кадров : 31, 250 кадров/сек (1536 spf)
    Метод сжатия : С потерями
    Размер потока : 162 Мбайт (5%)
    Язык : English
    Default : Нет
    Forced : Нет
    Текст #1
    Идентификатор : 6
    Формат : UTF-8
    Идентификатор кодека : S_TEXT/UTF8
    Идентификатор кодека/Информация : UTF-8 Plain Text
    Язык : Russian
    Default : Нет
    Forced : Нет
    Текст #2
    Идентификатор : 7
    Формат : UTF-8
    Идентификатор кодека : S_TEXT/UTF8
    Идентификатор кодека/Информация : UTF-8 Plain Text
    Язык : English
    Default : Нет
    Forced : Нет



    Залил: seregaanarhist

    Онлайн видео Турбулентность


    Размер скачиваемого торрента: 3.49 GB (3750242497 Bytes)

    Турбулентность/Turbulence (1997) WEB-DL 720p от Переулка Переводмана | P, A
    Рейтинг →
     (голосов: 1, оценка 5/5, голосовать можно 1 раз )

    Другие торренты по теме:

  • Турбулентность / Turbulence (1997) HDTVRip-AVC от New-Team | P
  • Турбулентность / Turbulence (1997) HDTVRip от New-Team | P
  • Турбулентность / Turbulence (1997) HDTVRip от New-Team | P
  • Турбулентность / Turbulence (1997) WEB-DLRip-AVC от k.e.n | P, A
  • Турбулентность / Turbulence (1997) WEB-DLRip-AVC от k.e.n | P, A
  • Турбулентность / Turbulence (1997) HDTVRip-AVC от New-Team | P
  • Турбулентность / Turbulence (1997) HDTVRip от New-Team | P
  • Турбулентность / Turbulence (1997) HDTVRip от New-Team | P


    • Комментарии (0):

      Информация

      Информация

        Посетители, находящиеся в группе Гости, не могут оставлять комментарии в данной новости.

        ↓ Меню




        ↓ Опрос

        А Вы добавили сайт в закладки?
        Да
        Не


        Top 10 за месяц (Фильмы)