.
Авторизация | Регистрация
Хочешь лучшие торренты? Добавь свой email!
Добавить
  • support: webmaster@servmix.org
» » Трое в каноэ / Without a Paddle (2004) BDRemux 1080p скачать торрент бесплатно


    Трое в каноэ / Without a Paddle (2004) BDRemux 1080p скачать торрент бесплатно

    Опубликовал: Админ | Дата: 27-02-2015, 11:09 | .torrent скачали: 374

    Трое в каноэ / Without a Paddle (2004) BDRemux 1080p

    Трое в каноэ / Without a Paddle (2004) BDRemux 1080p

    Информация о фильме
    Название: Трое в каноэ
    Оригинальное название: Without a Paddle
    Год выхода: 2004
    Жанр: комедия, приключения
    Режиссер: Стивен Брилл

    В ролях: Сет Грин, Мэттью Лиллард, Дэкс Шепард, Итан Сапли, Берт Рейнолдс, Рэй Бэйкер, Абрахам Бенруби, Мэттью Прайс, Эндрю Хэмптон, Джаред Рамболд ...

    О фильме: Это история трёх друзей из большого города, которые отправляются на поиски потерянных 200 тысяч долларов, которые сбросил с парашютом знаменитый угонщик самолёта Д. Б. Купер. Очень скоро трио понимает, что их попытка плыть на каноэ не очень-то удалась и всё идёт не так: и река становится опасной, да ещё какой-то мужик, что живёт у реки, всё время мешается под ногами…



    Страна: США
    Продолжительность: 01:38:51
    Перевод: Профессиональный (многоголосый закадровый), Оригинал (Английский)

    Файл
    Кодек: MPEG-4/AVC
    Качество: BDRemux 1080p
    Видео: 1920x1080, 23.976 fps, 31.8 mbps
    Аудио #1: AC3 5.1, 48khz, 6ch, 448 kbps (Русский)
    Аудио #2: DTS, 48khz, 6ch, 1510 kbps (Английский)
    Субтитры: Английские

    Релиз от:

    MediaInfo
    Общее
    Идентификатор : 1 (0x1)
    Полное имя : F:Without a Paddle.2004.BDRemux.1080p.m2ts
    Формат : BDAV
    Формат/Информация : Blu-ray Video
    Размер файла : 24,3 Гбайт
    Продолжительность : 1 ч. 38 м.
    Режим общего битрейта : Переменный
    Общий поток : 35,2 Мбит/сек
    Максимальный общий битрейт : 35,5 Мбит/сек

    Видео
    Идентификатор : 4113 (0x1011)
    Идентификатор меню : 1 (0x1)
    Формат : AVC
    Формат/Информация : Advanced Video Codec
    Профиль формата : High@L4.1
    Параметр CABAC формата : Да
    Параметр ReFrames формата : 2 кадра
    Параметр GOP формата : M=1, N=10
    Идентификатор кодека : 27
    Продолжительность : 1 ч. 38 м.
    Вид битрейта : Переменный
    Битрейт : 31,8 Мбит/сек
    Ширина : 1920 пикселей
    Высота : 1080 пикселей
    Соотношение сторон : 16:9
    Частота кадров : 23,976 кадра/сек
    Цветовое пространство : YUV
    Субдискретизация насыщенности : 4:2:0
    Битовая глубина : 8 бит
    Тип развёртки : Прогрессивная
    Бит/(Пиксели*Кадры) : 0.640
    Размер потока : 22,0 Гбайт (90%)
    Язык : English

    Аудио #1
    Идентификатор : 4352 (0x1100)
    Идентификатор меню : 1 (0x1)
    Формат : AC-3
    Формат/Информация : Audio Coding 3
    Расширение режима : CM (complete main)
    Параметр Endianness формата : Big
    Идентификатор кодека : 129
    Продолжительность : 1 ч. 38 м.
    Вид битрейта : Постоянный
    Битрейт : 448 Кбит/сек
    Каналы : 6 каналов
    Расположение каналов : Front: L C R, Side: L R, LFE
    Частота : 48,0 КГц
    Битовая глубина : 16 бит
    Метод сжатия : С потерями
    Размер потока : 317 Мбайт (1%)
    Язык : Russian

    Аудио #2
    Идентификатор : 4353 (0x1101)
    Идентификатор меню : 1 (0x1)
    Формат : DTS
    Формат/Информация : Digital Theater Systems
    Режим : 16
    Параметр Endianness формата : Big
    Идентификатор кодека : 130
    Продолжительность : 1 ч. 38 м.
    Вид битрейта : Постоянный
    Битрейт : 1510 Кбит/сек
    Каналы : 6 каналов
    Расположение каналов : Front: L C R, Side: L R, LFE
    Частота : 48,0 КГц
    Битовая глубина : 24 бит
    Метод сжатия : С потерями
    Размер потока : 1,04 Гбайт (4%)
    Язык : English

    Текст
    Идентификатор : 4608 (0x1200)
    Идентификатор меню : 1 (0x1)
    Формат : PGS
    Идентификатор кодека : 144
    Язык : English
    Скриншоты


    Залил: STARBIT
    Размер: 24.30 GB (26086625280 Bytes)
    Рейтинг →
     (голосов: 1, оценка 3/5, голосовать можно 1 раз )

    Другие торренты по теме:

  • Трое в каноэ / Без весла / Without a paddle (2004) BDRip от HQCLUB
  • Трое в кожаных штанах в Сан-Тропе / Drei Lederhosen in St. Tropez (1980) DVDRip скачать через торрент бесплатно
  • Трое в кожаных штанах в Сан-Тропе / Drei Lederhosen in St. Tropez (1980) DVDRip | L1
  • Трое в кожаных штанах в Сан-Тропе / Drei Lederhosen in St. Tropez (1980) DVDRip-AVC от ExKinoRay | A
  • Трое в Нью-Йорке / Поколение М / Generation Um... (2012) HDRip | L1
  • Трое в Коми (2013) HDTVRip 720p
  • Трое в Коми (2013) HDTVRip
  • Трое в Коми (2013) HDTV 1080i


    • Комментарии (0):

      Информация

      Информация

        Посетители, находящиеся в группе Гости, не могут оставлять комментарии в данной новости.

        ↓ Меню




        ↓ Опрос

        А Вы добавили сайт в закладки?
        Да
        Не


        Top 10 за месяц (Фильмы)