.
Авторизация | Регистрация
Хочешь лучшие торренты? Добавь свой email!
Добавить
  • support: webmaster@servmix.org
» » Королева скота из Монтаны / Cattle Queen of Montana (1954) DVD-5 скачать торрент бесплатно


    Королева скота из Монтаны / Cattle Queen of Montana (1954) DVD-5 скачать торрент бесплатно

    Опубликовал: Админ | Дата: 27-02-2015, 11:09 | .torrent скачали: 956

    Королева скота из Монтаны / Cattle Queen of Montana (1954) DVD-5

    Информация о фильме
    Название: Королева скота из Монтаны
    Оригинальное название: Cattle Queen of Montana
    Год выхода: 1954
    Жанр: Вестерн
    Режиссер: Аллан Дуон
    В ролях: Барбара Стэнвик, Рональд Рейган, Джин Эванс, Лэнс Фуллер, Энтони Карузо, Джек Илэм, Ивет Дугай, Моррис Анкрум, Чабби Джонсон, Майрон Хили
    О фильме:XIX век, Дикий Запад. Молодая привлекательная девушка Сьерра-Невада Джонс и её отец перегоняют стадо из Техаса в свои новые владения в штате Монтана. Об этом они мечтали очень долго и сейчас наслаждаются спокойствием и красотой новых мест. Внезапно они подвергаются нападению разбойника-индейца Начакоа и его людей из племени черноногих.

    Страна: США
    Студия: RKO Radio Pictures, Benedict Bogeaus Production
    Продолжительность: 01:24:34
    Перевод: Любительский одноголосый
    Субтитры: Русские, французские


    Файл
    Кодек: MPEG-2
    Качество: DVD-5
    Видео: PAL 4:3 (720x576) VBR
    Звук: Русский (Dolby AC3, 1 ch), фрацузский (Dolby AC3, 1 ch)




    Меню


    DVDInfo


    Title: Локальный диск
    Size: 4.34 Gb ( 4 552 294 KBytes ) - DVD-5
    Enabled regions: 1, 2, 3, 4, 5, 6, 7, 8

    VTS_01 :
    Play Length: 00:00:19 00:00:57
    Video: PAL 16:9 (720x576) VBR, Auto PanScan
    Audio:
    Not specified (Dolby AC3, 6 ch)

    VTS_02 :
    Play Length: 00:00:06
    Video: PAL 4:3 (720x576) VBR
    Audio:
    English (Dolby AC3, 1 ch)
    Subtitles:
    Francais

    VTS_03 :
    Play Length: 01:24:34
    Video: PAL 4:3 (720x576) VBR
    Audio:
    Russian (Dolby AC3, 1 ch)
    English (Dolby AC3, 1 ch)
    Subtitles:
    Russian
    Francais

    VTS_04 :
    Play Length:
    Video: PAL 16:9 (720x576) VBR, Auto PanScan
    Audio:
    English (Dolby AC3, 1 ch)
    Subtitles:
    Francais

    VTS_05 :
    Play Length:
    Video: PAL 16:9 (720x576) VBR, Auto PanScan

    VTS_06 :
    Play Length:
    Video: PAL 4:3 (720x576) VBR
    Audio:
    English (Dolby AC3, 1 ch)
    Subtitles:
    Francais

    VTS_07 :
    Play Length: 00:08:06
    Video: PAL 16:9 (720x576) VBR, Auto PanScan
    Audio:
    English (Dolby AC3, 1 ch)
    Subtitles:
    Francais

    VTS_08 :
    Play Length: 00:11:06
    Video: PAL 16:9 (720x576) VBR, Auto PanScan
    Audio:
    English (Dolby AC3, 1 ch)
    Subtitles:
    Francais

    VTS_09 :
    Play Length: 00:02:08
    Video: PAL 4:3 (720x576) VBR
    Audio:
    English (Dolby AC3, 1 ch)
    Subtitles:
    Francais

    VTS_10 :
    Play Length: 00:00:17
    Video: PAL 16:9 (720x576) VBR, Auto PanScan

    Menu Video:
    PAL 16:9 (720x576) VBR
    Auto PanScan
    Menu Audio:
    Not specified (Dolby AC3, 1 ch)
    Menu Subtitles:
    Not specified
    Menu English Language Unit :
    Root Menu
    Angle menu
    Chapter (PTT) Menu






    MediaInfo
    Общее
    Полное имя : D:РаздачиCattle Queen of Montana 1954 (DVD 5)VIDEO_TSVTS_03_1.VOB
    Формат : MPEG-PS
    Размер файла : 1024 Мбайт
    Продолжительность : 27 м.
    Режим общего битрейта : Переменный
    Общий поток : 5280 Кбит/сек

    Видео
    Идентификатор : 224 (0xE0)
    Формат : MPEG Video
    Версия формата : Version 2
    Профиль формата : Main@Main
    Параметр BVOP формата : Да
    Параметр матрицы формата : Выборочная
    Параметр GOP формата : M=3, N=12
    Продолжительность : 27 м.
    Вид битрейта : Переменный
    Битрейт : 4663 Кбит/сек
    Максимальный битрейт : 8500 Кбит/сек
    Ширина : 720 пикселей
    Высота : 576 пикселей
    Соотношение сторон : 4:3
    Частота кадров : 25,000 кадров/сек
    Стандарт вещания : PAL
    Цветовое пространство : YUV
    Субдискретизация насыщенности : 4:2:0
    Битовая глубина : 8 бит
    Тип развёртки : Чересстрочная
    Порядок развёртки : Верхнее поле первое
    Метод сжатия : С потерями
    Бит/(Пиксели*Кадры) : 0.450
    TimeCode_FirstFrame : 09:59:59:20
    TimeCode_Source : Group of pictures t_head
    Размер потока : 904 Мбайт (88%)

    Аудио #1
    Идентификатор : 189 (0xBD)-128 (0x80)
    Формат : AC-3
    Формат/Информация : Audio Coding 3
    Расширение режима : CM (complete main)
    Параметр Endianness формата : Big
    Режим смешивания : DVD-Video
    Продолжительность : 27 м.
    Вид битрейта : Постоянный
    Битрейт : 256 Кбит/сек
    Каналы : 1 канал
    Расположение каналов : Front: C
    Частота : 48,0 КГц
    Битовая глубина : 16 бит
    Метод сжатия : С потерями
    Задержка видео : -80 мс.
    Размер потока : 49,6 Мбайт (5%)

    Аудио #2
    Идентификатор : 189 (0xBD)-129 (0x81)
    Формат : AC-3
    Формат/Информация : Audio Coding 3
    Расширение режима : CM (complete main)
    Параметр Endianness формата : Big
    Режим смешивания : DVD-Video
    Продолжительность : 27 м.
    Вид битрейта : Постоянный
    Битрейт : 256 Кбит/сек
    Каналы : 1 канал
    Расположение каналов : Front: C
    Частота : 48,0 КГц
    Битовая глубина : 16 бит
    Метод сжатия : С потерями
    Задержка видео : -80 мс.
    Размер потока : 49,6 Мбайт (5%)

    Текст #1
    Идентификатор : 189 (0xBD)-32 (0x20)
    Формат : RLE
    Формат/Информация : Run-length encoding
    Режим смешивания : DVD-Video
    Продолжительность : 27 м.
    Задержка видео : 240 мс.

    Текст #2
    Идентификатор : 189 (0xBD)-33 (0x21)
    Формат : RLE
    Формат/Информация : Run-length encoding
    Режим смешивания : DVD-Video

    Меню



    Скриншоты

    Залил: YArl
    Размер: 4.34 GB (4661549056 Bytes)
    Рейтинг →
     (голосов: 1, оценка 4/5, голосовать можно 1 раз )

    Другие торренты по теме:

  • Снежная королева (2012) HDRip | Трейлер
  • Снежная королева (2012) CAMRip
  • Страшные сказки: Каменная Королева / Grim Tales 4: The Stone Queen CE (2013) PC
  • Прощай, моя королева / Farewell, My Queen / Les adieux la reine (2012) BDRip от HQCLUB
  • Снежная королева (2012) DVDRip | Лицензия
  • Снежная королева (2012) DVDRip от Generalfilm | КПК | Лицензия
  • Снежная королева (2012) BDRip 720p | Лицензия
  • Снежная королева (2012) BDRip от Youtracker


    • Комментарии (0):

      Информация

      Информация

        Посетители, находящиеся в группе Гости, не могут оставлять комментарии в данной новости.

        ↓ Меню




        ↓ Опрос

        А Вы добавили сайт в закладки?
        Да
        Не


        Top 10 за месяц (Фильмы)