.
Авторизация | Регистрация
Хочешь лучшие торренты? Добавь свой email!
Добавить
  • support: webmaster@servmix.org
» » Во имя короля 2 / In the Name of the King 2: Two Worlds (2011) DVD9 от NovaLan скачать торрент бесплатно


    Во имя короля 2 / In the Name of the King 2: Two Worlds (2011) DVD9 от NovaLan скачать торрент бесплатно

    Опубликовал: Админ | Дата: 27-02-2015, 11:09 | .torrent скачали: 378

    Во имя короля 2 / In the Name of the King 2: Two Worlds (2011) DVD9 от NovaLan

    Название: Во имя короля 2
    Оригинальное название: In the Name of the King 2: Two Worlds
    Год выхода: 2011
    Жанр: Фэнтези, боевик, драма, приключения
    Режиссер: Уве Болл
    В ролях: Дольф Лундгрен, Натасия Мальте, Локлин Манро, Хезер Дорксен, Алекс Паунович, Михаэлла Манн, Майкл Адамуэйт, Элизабет Розен, Джон Тенч, Пол Лейзенби
    О фильме:
    Средние века. Раздираемое кровавыми захватническими и междоусобными войнами, ранее бывшее тихим и спокойным, мирным и прекрасным, королевство Эхб весьма быстро превратилось в опустошённую землю ужаса, страха и угнетения. Отчаянно сопротивляющиеся жаждущему власти и богатства Лорду, остатки королевской знати и насмерть перепуганных местных жителей объединяют свои силы в тщетных попытках неравной борьбы с тираном. Все и каждый в эти тёмные и ужасные времена испытывают необходимость в герое, освободителе, в том человеке, которому суждено сплотить и повести за собой людей, ослабленных и изнеможённых нескончаемой войной, людей, потерявших веру в чудо, но ещё хранящих в своих сердцах надежду об исполнении древнего пророчества. В старинных летописях говорится о Воине-освободителе, который, согласно преданию, возьмётся из ниоткуда, и насмерть сразит угнетателя рода людского, ибо оному суждено свершить Божью кару над ненасытным Правителем. И однажды появляется неизвестный странник в необычном одеянии - человек в странной экипировке, неустанно твердящий, что он не из этих мест. Так начинается необыкновенная история, на прочно связавшая друг с другом путешествия во времени и в пространстве, грандиозные сражения и героические подвиги, волшебство и древнюю магию, пророчества и их чудесное воплощение в реальность…


    Страна: Германия, Канада, Brightlight Pictures Inc.
    Продолжительность: 01:32:13
    Перевод: Профессиональный многоголосый / Любительский двухголосый

    Кодек: MPEG-2
    Качество: DVD-9
    Видео: PAL 16:9 (720x576) VBR
    Звук: Русский, английский (Dolby AC3, 6 ch), русский (Dolby AC3, 2 ch)
    Субтитры: Немецкие, нидерландские

    Релиз группы NovaLan
    Автор релиза Sergei7721




    MediaInfo

    Полное имя : C:UsersСергейDownloadsРаздачиVo.imja.korolja.2.2011.DVD9.NovaLanVIDEO_TSVTS_03_1.VOB
    Формат : MPEG-PS
    Размер файла : 1024 Мбайт
    Продолжительность : 14 м.
    Режим общего битрейта : Переменный
    Общий поток : 9856 Кбит/сек

    Видео
    Идентификатор : 224 (0xE0)
    Формат : MPEG Video
    Версия формата : Version 2
    Профиль формата : Main@Main
    Параметр BVOP формата : Да
    Параметр матрицы формата : Выборочная
    Продолжительность : 14 м.
    Вид битрейта : Переменный
    Битрейт : 8508 Кбит/сек
    Максимальный битрейт : 8600 Кбит/сек
    Ширина : 720 пикселей
    Высота : 576 пикселей
    Соотношение сторон : 16:9
    Частота кадров : 25,000 кадров/сек
    Стандарт вещания : PAL
    Цветовое пространство : YUV
    Субдискретизация насыщенности : 4:2:0
    Битовая глубина : 8 бит
    Тип развёртки : Чересстрочная
    Порядок развёртки : Верхнее поле первое
    Метод сжатия : С потерями
    Бит/(Пиксели*Кадры) : 0.821
    Размер потока : 884 Мбайт (86%)

    Аудио #1
    Идентификатор : 189 (0xBD)-128 (0x80)
    Формат : AC-3
    Формат/Информация : Audio Coding 3
    Расширение режима : CM (complete main)
    Параметр Endianness формата : Big
    Режим смешивания : DVD-Video
    Продолжительность : 14 м.
    Вид битрейта : Постоянный
    Битрейт : 320 Кбит/сек
    Каналы : 2 канала
    Расположение каналов : Front: L R
    Частота : 48,0 КГц
    Битовая глубина : 16 бит
    Метод сжатия : С потерями
    Размер потока : 33,2 Мбайт (3%)

    Аудио #2
    Идентификатор : 189 (0xBD)-129 (0x81)
    Формат : AC-3
    Формат/Информация : Audio Coding 3
    Расширение режима : CM (complete main)
    Параметр Endianness формата : Big
    Режим смешивания : DVD-Video
    Продолжительность : 14 м.
    Вид битрейта : Постоянный
    Битрейт : 448 Кбит/сек
    Каналы : 6 каналов
    Расположение каналов : Front: L C R, Side: L R, LFE
    Частота : 48,0 КГц
    Битовая глубина : 16 бит
    Метод сжатия : С потерями
    Размер потока : 46,5 Мбайт (5%)

    Аудио #3
    Идентификатор : 189 (0xBD)-130 (0x82)
    Формат : AC-3
    Формат/Информация : Audio Coding 3
    Расширение режима : CM (complete main)
    Параметр Endianness формата : Big
    Режим смешивания : DVD-Video
    Продолжительность : 14 м.
    Вид битрейта : Постоянный
    Битрейт : 384 Кбит/сек
    Каналы : 6 каналов
    Расположение каналов : Front: L C R, Side: L R, LFE
    Частота : 48,0 КГц
    Битовая глубина : 16 бит
    Метод сжатия : С потерями
    Размер потока : 39,9 Мбайт (4%)

    Текст #1
    Идентификатор : 189 (0xBD)-32 (0x20)
    Формат : RLE
    Формат/Информация : Run-length encoding
    Режим смешивания : DVD-Video

    Текст #2
    Идентификатор : 189 (0xBD)-33 (0x21)
    Формат : RLE
    Формат/Информация : Run-length encoding
    Режим смешивания : DVD-Video

    Скриншоты меню




    Релиз от:


    Залил: Sergei7721
    Размер: 7.87 GB (8449482752 Bytes)
    Рейтинг →
     (голосов: 1, оценка 5/5, голосовать можно 1 раз )

    Другие торренты по теме:

  • Во имя справедливости / Нико-4 / Out for Justice (1991) BDRip 1080p
  • Во имя короля: История осады подземелья / In the Name of the King: A Dungeon Siege Tale (2007) DVD9 от NovaLan
  • Во имя отца / In the Name of the Father (1993) Blu-ray Disc
  • Нико-4 / Во имя справедливости / Out for Justice (1991) BDRip от HQCLUB | ReRip
  • Во имя отца / In the Name of the Father (1993) BDRip от HQ-ViDEO
  • Во имя справедливости / Out for Justice (1991) BDRip by msltel | D, P, P2, A скачать через торрент бесплатно
  • Во имя справедливости / Out for Justice (1991) BDRip 720p by msltel | D, P, P2, A скачать через торрент бесплатно
  • Во имя справедливости / Out for Justice (1991) BDRip 1080p by msltel | D, P, P2, A


    • Комментарии (0):

      Информация

      Информация

        Посетители, находящиеся в группе Гости, не могут оставлять комментарии в данной новости.

        ↓ Меню




        ↓ Опрос

        А Вы добавили сайт в закладки?
        Да
        Не


        Top 10 за месяц (Фильмы)