.
Авторизация | Регистрация
Хочешь лучшие торренты? Добавь свой email!
Добавить
  • support: webmaster@servmix.org
» » Владимир Дубровский - Робин Гуд (1978) (1995) APE скачать торрент бесплатно


    Владимир Дубровский - Робин Гуд (1978) (1995) APE скачать торрент бесплатно

    Опубликовал: Админ | Дата: 27-02-2015, 11:09 | .torrent скачали: 401

    Владимир Дубровский - Робин Гуд (1978) (1995) APE

    Жанр: Сказка
    Год выпуска: 1995 г.
    Год записи: 1978 г.
    Издательство: Moroz Records
    Ремастеринг: Aprelevka Sound Production
    Номер по каталогу: ASP 95055 CD
    Релиз: Черник
    Аудио кодек: APE
    Тип рипа: image .cue .log
    Битрейт: lossless
    Тип : Аудиоспектакль
    Общее время звучания: 00:43:42
    Наличие сканов в содержимом раздачи: есть

    Аннотация:
    Инсценированный рассказ В.Дубровского по пьесе С.Заяицкого

    Музыка М.Картинского
    Стихи Р.Бернса
    Перевод С.Маршака

    Действующие лица и исполнители:
    Рассказчик – Б. Левинсон
    Гай Гисборн – Д. Ильин
    Робин Гуд – Е. Герасимов
    Маленький Джон – К. Румянова
    Тощий Бен – Н. Прокофьев
    Сесиль – И. Печорникова
    Клоринда - Г. Анисимова
    Служанка - Э. Сидорова
    Шериф - В. Самойлов
    Секретарь - Е. Леонов
    Начальник стражи - К. Мукасьян
    Вилли Статли - В. Козлов
    Барон Тирвудский - А. Лазарев
    Рыцари - Р. Афанасьев, М. Езепов, А. Михеев

    Песни исполняют:
    Г. Анисимова, В. Толкунова, Е. Леонов, Л. Лещенко, И. Кобзон,
    м вокальный ансамбль Коробейники, ансамбль Мелодия п/у Г. Гараняна,
    инструментальный ансамбль п/у Н. Левинского.

    Режиссёр - Б. Кондратьев
    Звукорежиссёр - М. Пахтер
    Художник - В. Храмов
    Дизайн - Д. Покровский

    Об альбоме (с пластинки)

    Рассказ Евгения Леонова о спектакле - на пакете от пластинки :

    Как всякий человек, у которого нет ни голоса, ни слуха, я очень люблю петь. Правда, режиссёры раньше не разрешали мне петь в спектаклях и фильмах.
    Впервые я запел в фильме Москва. Черёмушки. - куплеты управдома. ... С тех пор я расхрабрился и стал понемножку петь то в спектаклях, то в картинах, то в телепередачах, то в мультфильмах. Может быть, вы помните песенку медвежонка из мультика о Винни - Пухе ?

    И вот теперь меня пригласили записаться в маленькой роли секретаря шерифа для пластинки Робин Гуд .
    Над пластинкой работали мои давние друзья: артисты московских театров, с которыми я не раз играл на сцене, хорошие певцы, знакомые мне по концертным выступлениям, мой товарищ по театральной работе Виктор Дубровский, написавший этот инсценированный рассказ, и наконец, автор музыки Марк Карминский.

    Когда я работал в драматическом театре имени К.С. Станиславского, там поставили весёлый и увлекательный спектакль для детей Робин Гуд. Музыку к спектаклю написал композитор Марк Карминский. Я подружился с ним и с интересом слушаю каждое его новое сочинение.
    Мне нравятся его песни на стихи советских поэтов; его музыка к спектаклям и фильмам; его большие и интересные оперы - Десять дней, которые потрясли мир и Иркутская история . Но особенно я люблю песни Карминского к Робину Гуду .

    Эти песни написаны на стихи известного шотландского поэта Роберта Бёрнса ( в переводе Самуила Яковлевича Маршака ). Композитор, по- моему, очень точно ощутил особенность поэзии Бёрнса - её народный характер, боевой бунтарский дух, сочный юмор. Когда слушаешь эти песни, кажется, что только так и могут звучать стихи Бёрнса, и что композитор легко и свободно, без всяких усилий, записал слова поэта нотными знаками.

    Удивительно разнообразны эти песни: одна звучит, как боевой призыв, как клич к бою, другая весела и задорна, третья подкупает романтической интонацией, четвёртая - своим лиризмом, задушевностью. При этом все песни чем-то неуловимым близки друг другу и составляют как бы одно большое произведение - вокальную сюиту о Робине Гуде.
    Песни эти говорят о замечательных человеческих чувствах - свободолюбии, верности, благородстве. И неважно, что лесные братья Робина Гуда жили в далёкие времена - их чувства нам очень понятны. Поэтому мне кажется, что правильно поступил Марк Карминский, придав музыке этого цикла характер современной песни. Так могли петь друзья весёлого и славного Робина Гуда, так поют и сегодня наши весёлые и славные парни.
    И ещё одно, наверное, самое ценное качество песен - их мелодичность. Каждая песня несёт свой образ, своё настроение и свою выразительную, запоминающуюся мелодию.
    Может быть, у меня нет и голоса и слуха. Но я люблю музыку, она доставляет мне радость.
    Я испытал эту радость, когда слушал эту пластинку. Верю, что вам она тоже понравится.


    EAC log

    Exact Audio Copy V0.99 prebeta 4 from 23. January 2008

    Отчёт EAC об извлечении, выполненном 21. декабря 2009, 14:49

    Various / Робин Гуд

    Дисковод: Optiarc DVD RW AD-7190A Adapter: 0 ID: 0

    Режим чтения : Достоверность
    Использование точного потока : Да
    Отключение кэша аудио : Да
    Использование указателей C2 : Нет

    Коррекция смещения при чтении : 6
    Способность читать области Lead-in и Lead-out : Нет
    Заполнение пропущенных сэмплов тишиной : Да
    Удаление блоков с тишиной в начале и конце : Нет
    При вычислениях CRC использовались нулевые сэмплы : Да
    Интерфейс : Встроенный Win32-интерфейс для Win NT/2000

    Выходной формат : Внутренние WAV-операции
    Формат сэмплов : 44.100 Гц; 16 бит; стерео

    TOC извлечённого CD

    Трек | Старт | Длительность | Начальный сектор | Конечный сектор
    ---------------------------------------------------------------------
    1 | 0:00.00 | 3:47.00 | 0 | 17024
    2 | 3:47.00 | 7:58.50 | 17025 | 52924
    3 | 11:45.50 | 2:09.57 | 52925 | 62656
    4 | 13:55.32 | 1:06.15 | 62657 | 67621
    5 | 15:01.47 | 4:30.63 | 67622 | 87934
    6 | 19:32.35 | 3:06.15 | 87935 | 101899
    7 | 22:38.50 | 3:59.50 | 101900 | 119874
    8 | 26:38.25 | 4:12.27 | 119875 | 138801
    9 | 30:50.52 | 3:01.28 | 138802 | 152404
    10 | 33:52.05 | 2:51.32 | 152405 | 165261
    11 | 36:43.37 | 6:59.38 | 165262 | 196724

    Характеристики диапазона извлечения и сообщения об ошибках

    Выбранный диапазон

    Имя файла D:АудиоспектаклиРобин ГудРобин Гуд.wav

    Пиковый уровень 83.9 %
    Качество диапазона 99.9 %
    CRC теста DBE3D19F
    CRC копии DBE3D19F
    Копирование... OK

    Ошибок не произошло

    AccurateRip: сводка

    Трек 1 нет в базе данных
    Трек 2 нет в базе данных
    Трек 3 нет в базе данных
    Трек 4 нет в базе данных
    Трек 5 нет в базе данных
    Трек 6 нет в базе данных
    Трек 7 нет в базе данных
    Трек 8 нет в базе данных
    Трек 9 нет в базе данных
    Трек 10 нет в базе данных
    Трек 11 нет в базе данных

    Ни одного трека нет в базе AccurateRip

    Конец отчёта


    auCDtect

    -----------------------

    DON;T MODIFY THIS FILE

    -----------------------

    PERFORMER: auCDtect Task Manager, ver. 1.5.1RC4 build 1.5.1.5
    Copyright (c) 2008-2010 y-soft. All rights reserved
    http://y-soft.org

    ANALYZER: auCDtect: CD records authenticity detector, version 0.8.2
    Copyright (c) 2004 Oleg Berngardt. All rights reserved.
    Copyright (c) 2004 Alexander Djourik. All rights reserved.

    FILE: Робин Гуд.ape
    Size: 209862668 Hash: 16F025B16951C20B340B10DCAD7D00E7 Accuracy: -m0
    Conclusion: CDDA 100%
    Signature: 12B8CD2BF0EF76265F2015A8A9100297469345ED




    Содержание индексной карты (.CUE)

    REM GENRE Children
    REM DATE 1995
    REM DISCID 7B0A3F0B
    REM COMMENT ExactAudioCopy v0.99pb4
    PERFORMER Various
    TITLE Робин Гуд
    FILE Робин Гуд.ape WAVE
    TRACK 01 AUDIO
    TITLE Это было давным-давно ...
    PERFORMER Это было давным-давно ...
    INDEX 01 00:00:00
    TRACK 02 AUDIO
    TITLE Лесные разбойники - заступники бедных крестьян
    PERFORMER Лесные разбойники - заступники бедных крестьян
    INDEX 01 03:47:00
    TRACK 03 AUDIO
    TITLE Клятва лесных братьев
    PERFORMER Клятва лесных братьев
    INDEX 01 11:45:50
    TRACK 04 AUDIO
    TITLE Обманчивая победа шерифа
    PERFORMER Обманчивая победа шерифа
    INDEX 01 13:55:32
    TRACK 05 AUDIO
    TITLE Тайна Сесиль
    PERFORMER Тайна Сесиль
    INDEX 01 15:01:47
    TRACK 06 AUDIO
    TITLE Злая Клоринда
    PERFORMER Злая Клоринда
    INDEX 01 19:32:35
    TRACK 07 AUDIO
    TITLE Письмо королю
    PERFORMER Письмо королю
    INDEX 01 22:38:50
    TRACK 08 AUDIO
    TITLE Допрос маленького Джона
    PERFORMER Допрос маленького Джона
    INDEX 01 26:38:25
    TRACK 09 AUDIO
    TITLE Пир в замке
    PERFORMER Пир в замке
    INDEX 01 30:50:52
    TRACK 10 AUDIO
    TITLE Встреча Робина Гуда и Сесиль
    PERFORMER Встреча Робина Гуда и Сесиль
    INDEX 01 33:52:05
    TRACK 11 AUDIO
    TITLE Штурм замка и освобождение крестьян
    PERFORMER Штурм замка и освобождение крестьян
    INDEX 01 36:43:37


    Треклист

    01. Это было давным-давно ... (3:47)
    02. Лесные разбойники - заступники бедных крестьян (7:59)
    03. Клятва лесных братьев (2:10)
    04. Обманчивая победа шерифа (1:06)
    05. Тайна Сесиль (4:31)
    06. Злая Клоринда (3:06)
    07. Письмо королю (4:00)
    08. Допрос маленького Джона (4:12)
    09. Пир в замке (3:01)
    10. Встреча Робина Гуда и Сесиль (2:51)
    11. Штурм замка и освобождение крестьян (7:00)

    Залил: geka9999
    Размер: 204.66 MB (214598623 Bytes)
    Рейтинг →
     (голосов: 1, оценка 3/5, голосовать можно 1 раз )

    Другие торренты по теме:

  • Дубровский (Благородный разбойник Владимир Дубровский) (4 серии из 4) / 1988 / РУ / SATRip
  • Благородный разбойник Владимир Дубровский / 1988 / РУ / DVD-5
  • Благородный разбойник Владимир Дубровский / 1988 / РУ / DVDRip


    • Комментарии (0):

      Информация

      Информация

        Посетители, находящиеся в группе Гости, не могут оставлять комментарии в данной новости.

        ↓ Меню




        ↓ Опрос

        А Вы добавили сайт в закладки?
        Да
        Не


        Top 10 за месяц (Книги)